This file was generated by Ched 2.7.0.0.
#TITLE ""
#ARTIST ""
#DESIGNER ""
#DIFFICULTY 0
#PLAYLEVEL
#SONGID ""
#WAVE ""
#WAVEOFFSET 0
#JACKET ""
#REQUEST "ticks_per_beat 480"
#00002: 4
#BPM01: 142
#00008: 01
#TIL00: ""
#HISPEED 00
#MEASUREHS 00
#00218:00140014
#00214:0014
#00213:24
#00414:00140000
#00418:0014
#00412:00000014
#0041a:14
#00312:14
#0051a:1414
#00514:00140014
#00510:41
#0061a:14000014
#00612:00140000
#00616:0014
#00718:00140000
#00714:0014
#0071a:00000014
#00712:24
#00812:14000014
#0081a:00140000
#00816:0014
#00914:00140000
#00918:0014
#00912:00000014
#0091a:24
#0101a:14
#01012:00140000
#01018:00001414
#01014:0000000000140014
#01118:1414
#01114:0000001400000000
#01112:0000000000000014
#01212:0014000014000000
#01218:1400140000140000
#01214:00000014
#0121a:0000000000000014
#01312:14
#01318:0000001400000000
#01314:0014
#0131a:0000000000000014
#01310:41
#01512:14
#01518:00140000
#01514:0014
#0151a:00000014
#01614:14
#0161a:00140000
#01612:0014
#01618:00000014
#01712:14
#01718:00140000
#01714:0014
#0171a:00000014
#01912:1414
#01914:00000014
#01918:0000140000140000
#02014:00000014
#0201a:0000343400000000
#02010:41
#0211a:00140000
#02114:0014
#02118:00000014
#0211f:11
#02212:14
#02218:00140000
#02214:0014
#0221a:00000014
#02312:24140000
#02318:0014
#02314:00000014
#0231a:24
#0241a:14
#02414:00140000
#02418:0014
#02412:00000014
#02518:0000001400000014
#02514:0014
#0251a:24
#02512:24
#0271a:24140000
#02714:0000000000140014
#02718:00000014
#02712:24
#0271f:21
#02812:24140000
#0281a:24
#02810:41
#0291a:14
#02914:00140000
#02918:0014
#02912:00000014
#0301a:14
#03018:00000034000034000000000000000000
#03112:1414
#03118:00140014
#03214:14140000
#03218:0014001400000000
#0321a:0000000000343400
#03414:00141414
#03418:0000001400140000
#03419:24
#03512:24140000
#03518:0000000000140014
#03514:00000014
#0351a:24
#0361a:24140000
#03612:24
#03712:14
#03718:00140000
#03714:0014
#0371a:00000014
#03812:14
#03814:00000034000034000000000000000000
#03810:41
#0391a:1414
#03914:00140014
#04018:14140000
#04014:0014001400000000
#04012:0000000000343400
#0451a:14
#04512:14
#04510:41
#0461a:14
#04614:00140000
#04618:0014
#04612:00000014
#04818:14001414
#04814:0000140000140014
#0501a:14
#05014:00140000
#05018:0014
#05012:00000014
#05218:14001414
#05214:0000140000140014
#05312:0000162600000000
#05318:2600000000161626
#00119:0024000024000024
#00113:0000240000240000
#01413:24000024000024000000000000000000
#01419:00000000000000002400002400002400
#02612:24
#02619:0024000000000000
#02613:00240000
#0261a:0000002400000000
#02614:0024
#03313:0024000024000024
#03319:0000240000240000
#04119:0024000024000024
#04113:0000240000240000
#04213:24
#04313:0024000024000024
#04319:0000240000240000
#04419:24
#05413:0023
#0541a:0023
#00352:54
#01158:14
#02054:00000054
#0275a:00540000
#02852:00640000
#0305a:54
#03058:0014
#03258:0000005400000000
#03552:00640000
#0365a:00540000
#03852:64
#03854:0014
#04054:0000006400000000
#04552:54
#0455a:54
#003320:14
#003340:00000024
#018320:14
#018340:00240000
#0183a0:0014
#018380:00000024
#019380:0000000000000014
#0203a0:0034343400000000
#020380:0024
#020340:00000014
#021320:24
#0273a0:00140000
#027380:0024
#028320:00140000
#028340:0024
#0303a0:14
#030380:00000034000034002400000000000000
#032380:0000001400000000
#0323a0:0000000000343424
#035320:00140000
#035340:0024
#0363a0:00140000
#036380:0024
#038320:14
#038340:00000034000034002400000000000000
#040340:0000001400000000
#040320:0000000000343424
#0423a0:00140024
#042390:0000003400340000
#042380:0034
#044320:00140024
#044330:0000003400340000
#044340:0034
#045320:14
#045340:00000024
#0453a1:14
#045381:00000024
#0473a1:14
#047381:00240000
#047321:0014
#047341:00000024
#0493a1:14
#049381:00240000
#049321:0014
#049341:00000024
#0513a1:14
#051381:00240000
#051340:14
#051320:00240000
#051320:0014
#051340:00000024
#051381:0014
#0513a1:00000024
