This file was generated by Ched 2.6.4.0.
#TITLE ""
#ARTIST ""
#DESIGNER ""
#DIFFICULTY 0
#PLAYLEVEL
#SONGID ""
#WAVE ""
#WAVEOFFSET 0
#JACKET ""
#REQUEST "ticks_per_beat 480"
#00002: 4
#BPM01: 110
#00008: 01
#TIL00: ""
#HISPEED 00
#MEASUREHS 00
#00019:14
#0021a:14
#00210:41
#00113:14
#00314:14
#0041a:14
#00414:0014
#00612:14
#00718:14
#00812:14
#00818:0014
#0161a:1414
#0161f:11
#01714:1414
#02318:2616
#0231f:21
#02310:0041
#02412:1616
#02612:00160000
#02618:1616
#01318:1414
#0181a:14
#01814:0014
#02518:16
#02512:0016
#02712:1616
#02818:1616
#02912:16
#02918:0016
#03012:1616
#03018:00160000
#03412:16
#04812:1616
#04818:00000016
#05018:1616
#05012:00160000
#05218:1616
#05212:00000016
#05412:1616
#05418:00160000
#04718:2616
#04912:2616
#04910:41
#05718:14
#01212:1414
#01412:14
#01418:0014
#05112:2616
#05318:2616
#05614:14
#0551a:14
#06018:14
#06114:14
#01512:1414
#01510:41
#0191a:1414
#00910:41
#03910:41
#0053a0:1424
#009320:1424
#0103a0:1434
#0113a0:3424
#020320:1424
#0213a0:1424
#022340:1424
#031380:16
#032370:36
#033380:26
#0353a0:1424
#036320:1424
#037380:1424
#038340:1424
#0393a0:14
#0403a0:24
#041320:14
#042320:24
#043380:14
#044380:24
#045340:14
#046340:24
#058320:14
#059320:24
#0623a0:14000024
