This file was generated by Ched 2.7.0.0.
#TITLE ""
#ARTIST ""
#DESIGNER ""
#DIFFICULTY 0
#PLAYLEVEL
#SONGID ""
#WAVE ""
#WAVEOFFSET 0
#JACKET ""
#REQUEST "ticks_per_beat 480"
#00002: 4
#BPM01: 110
#00008: 01
#TIL00: ""
#HISPEED 00
#MEASUREHS 00
#00112:1313
#0011a:0012001200000000
#00117:00120022
#00119:0000000000220000
#00115:0000000000000022
#00418:00000000000000000000000000000013
#00416:13000000000000000000001300000000
#00412:00001300000000130000000000000000
#00417:00000013000000001300000000000000
#0041b:0000000000130000
#0101b:0013001300130000
#01017:0000000013000013
#01012:1300000013000013
#01016:0013141300131400
#01116:13141300
#01117:0013001300002200
#0111b:1313
#01112:0013001300000000
#01115:0000000000220000
#01119:0000000000000022
#02318:00001300000000000013000000001300
#02315:00000000000013000000130000130000
#0231b:23232323
#02312:23232323
#0231f:21
#02310:0041
#02418:0013231300132300
#02415:23000013000000002300001300000000
#0241b:2300000023000023
#02412:0000230000002323
#02612:0000000000000013
#0261b:0000000000000013
#03119:13131313
#0311b:0013000000130000
#03117:0000001300000013
#03114:13131313
#03116:0013000000130000
#03112:0000001300000013
#0331b:0013000000130000
#03314:00000013000000000013000000000000
#03319:00131300
#03317:0000001300000000
#03312:00000000001300130000000000001300
#03316:00130000000000000000001300000000
#03318:00000000000000000000000000000013
#03415:13000013000000000000000000000013
#03418:00130000130000000000000000001300
#03414:0000001300000000
#03419:00000000000000130000000000000000
#03412:00000000000000000013001300000000
#0341b:0000000000131300
#0021b:00001300000000130013000000000000
#00212:00000000130013000000000000000013
#00218:00000000001300000000001300130000
#00215:0000000013131300
#00210:41
#0031b:13001300000013000000130000000013
#00312:00130000000000130000001300000000
#00318:00131313
#00315:00000013001300000013000000130000
#00518:00001300000000130013000000000013
#00515:00000013000013000000230000000000
#00512:00330000000000001300000023000000
#0051b:00000000003300000000001300000000
#00612:13000000000000000013001300000013
#0061b:0013131300000013
#00615:00000013001300130000000000130000
#00618:0000000013131300
#02116:0014001300000000
#02112:0000130013130000
#02115:00000013
#02118:0000000000000013
#02117:00130000
#0211b:0000001313000000
#02515:0000000000000013
#0251b:0013000000000000
#03219:13131313
#0321b:0013000000130000
#03217:0000001300000013
#03214:13131313
#03216:0013000000130000
#03212:0000001300000013
#0421c:0000000000000012
#04216:0000000000000012
#04218:12
#04212:12
#0421b:0012000000000000
#04215:0012000000000000
#04818:00130000
#04815:00000000001300130000000000000000
#04812:0000000000130000
#04817:0000000000000013
#0481b:0023000000000000
#00015:1313000000000000
#0001b:00130000
#00012:000000000000130000003333000000130000000000000000
#00016:0000000000140013
#00018:000000000000000000003333000000000000000000000000
#00815:00000000000000000000000000000013
#00817:13000000000000000000001300000000
#0081b:00001300000000130000000000000000
#00816:00000013000000001300000000000000
#00812:0000000000130000
#0071b:00001300000000130000001300000000
#00715:00001313
#00718:00000000001300000013000000130000
#00712:00000000000013000000130000000013
#00717:13
#00716:00000013000000000000000000000000
#00915:00001300000000130013000000000000
#00918:00000013000013000000230000000000
#0091b:00330000000000001300000023000000
#00912:00000000003300000000001300000000
#00910:41
#01418:00000000000000000000000000000013
#01416:13000000000000000000131300000000
#01417:00001313000000001300000000000000
#01412:00000000000000130000000000000000
#01212:00001300130013000000000000000013
#01217:00000013001300000000000000000000
#01219:00000000000000130000000000000000
#01214:0013
#0121b:00000000000000000013001300130000
#01216:0000000000131300
#0131b:13001300000013000000130000000013
#01312:00130000000000130000001300000000
#01318:00131313
#01315:00000013001300000013000000130000
#01518:00001300003300130000000000000013
#01515:00330013000013000000000000000000
#01512:0013
#0151b:00000000000000000013000000000000
#01519:00000000000000000000001300000000
#01514:0000000000230000
#01516:00000023
#01510:41
#01815:00000000000000000000000000000013
#01817:13000000000000000000131300000000
#01816:00001313000000001300000000000000
#0181b:00000000000000130000000000000000
#0161b:0013131300000000
#01616:00000013001300000000000000000000
#01614:00000000000000130000000000000000
#01619:0013
#01612:00000000000000000013001300130000
#01617:0000000000131300
#0161f:11
#01712:00001300000013000000130000000013
#0171b:00000000000000130000001300000000
#01715:13131313
#01718:00000013001300000013000000130000
#01915:00001300003300130000000000001300
#01918:00330013000013000000000000000013
#0191b:0013
#01912:00000000000000000013000000000000
#01914:00000000000000000000001300000000
#01919:0000000000230000
#01917:00000023
#02012:1300001300000000
#0201b:0013000000000000
#02018:0000130000130000
#02015:0013
#02212:1300000000000024
#02216:00130024
#0221a:0000000000240000
#02715:00001300000000000013000000001300
#02718:00000000000013000000130000130000
#02712:23232323
#0271b:23232323
#02815:0013231300132300
#02818:23000013000000002300001300000000
#02812:2300000023000023
#0281b:0000230000002323
#02918:0000000000000013
#02912:0013000000000000
#0301b:13131300
#03016:13131300
#03012:0013001300000000
#03017:0013001300000000
#03616:0014130000000000
#03617:0000001300000000
#0361b:0000130013130000
#03618:00000013
#03615:0000000000000013
#03612:0000001313000000
#0351b:1300001300000000
#03512:0013000000000000
#03515:0000130000130000
#03518:0013
#0371b:13
#03717:00130000
#0371c:0000000000220000
#03716:0000000000220000
#0371a:00000022
#03714:00000022
#03718:0000000000000022
#03712:0000000000000022
#03919:00001200000000000012000000000000
#03915:00000000000012000000000000120000
#03917:0000000000120012
#03913:22222222
#0391b:22222222
#03910:41
#0401c:0012220000122200
#04012:2200001222000022
#04018:2200000022000022
#04016:00220022
#04114:0012000000000000
#0411c:0000000000000012
#04315:00001200000000000012000000000000
#04319:00000000000012000000000000120000
#04317:0000000000120012
#0431b:22222222
#04313:22222222
#04412:0012220000122200
#0441c:2200001222000022
#04416:2200000022000022
#04418:00220022
#0451a:0012000000000000
#04512:0000000000000012
#04616:12
#0461c:12
#04613:0012000000000000
#04619:0012000000000000
#04615:00120000
#0461b:00120000
#04612:0000001200000000
#04618:0000001200000000
#04712:1313130000000000
#04717:00130013000000000000000000000000
#0471b:0000000013131300
#04716:00000000000000000013001300000000
#0491b:1313130000000000
#04916:00130013000000000000000000000000
#04912:0000000013131300
#04917:00000000000000000013001300000000
#04910:41
#05016:0013
#0501b:0013
#0511a:14001400000000000000001400000000
#05116:00140000140000000014000014000000
#05112:00000014000000001400140000000000
#05312:14001400000000000000001400000000
#05316:00140000140000000014000014000000
#0531a:00000014000000001400140000000000
#05215:00130000
#05218:00000000001300130000000000000000
#0521b:0000000000130000
#05216:0000000000000013
#05212:0023000000000000
#05417:0013
#05412:0013
#05616:1414000014000000
#05612:13
#05812:13
#0601b:13
#06016:0014000014000000
#0621b:12
#03819:0000000000220000
#03817:00000022
#03815:0000000000000022
#00152:1313
#03159:63536353
#0315b:0023000000230000
#03157:0000002300000023
#03154:63536353
#03156:0023000000230000
#03152:0000002300000023
#03259:63536353
#0325b:0023000000230000
#03257:0000002300000023
#03254:63536353
#03256:0023000000230000
#03252:0000002300000023
#00056:0000000000540000
#01456:53
#01457:0063
#01857:63
#01856:0053
#02052:53
#02058:00530000
#02055:0053
#0305b:0053
#03056:0053
#03052:00000013
#03057:00000013
#0355b:63
#03555:00630000
#03558:0063
#05056:0053
#0505b:0053
#05052:00000013
#05057:00000013
#05457:0063
#05452:0063
#0545b:00000013
#05456:00000013
#05656:0054
#06056:0064
#02657:00000013
#02652:00000013
#04259:00000012
#04253:00000012
#0465a:00000012
#04654:00000012
#04752:00130000
#0475b:00000013
#0495b:00130000
#04952:00000013
#05156:00140014
#05356:00140014
#05852:00000013
#05857:00000013
#000380:1323000000000000
#0003b0:0000001300000000
#000380:000000000000000000003333230000000000000000000000
#000351:0000001300000000
#000321:000000000000000000003333230000000000000000000000
#000361:0000000000140000
#0003a1:0000000000000024
#002321:13
#002361:0023000000000000
#005351:13
#005321:00332300000000000000000000000000
#005381:00130000
#0053b1:00000000003323000000000000000000
#009381:13
#0093b1:00332300000000000000000000000000
#009351:00130000
#009321:00000000003323000000000000000000
#0093b1:0000000000000013
#010371:23
#0123b1:13
#012391:00330000000000000000000000000000
#012371:0023000000000000
#014361:13
#014321:0023000000000000
#014371:0013
#0143b1:0000000000230000
#015321:13
#015351:00332300000000000000000000000000
#0153b1:00130000
#015381:00000000003323000000000000000000
#016321:13
#016361:0023000000000000
#0163b1:00000000000000000000000000000013
#0173b1:23
#018371:13
#0183b1:0023000000000000
#018361:0013
#018321:0000000000230000
#0193b1:13
#019381:00332300000000000000000000000000
#019321:00130000
#019351:00000000003323000000000000000000
#020321:13
#020351:00230000
#020380:00130000
#0203b0:0023
#020351:0013
#020321:00000023
#0203b0:00000013
#020370:0000000000000033
#0213b0:23
#020321:0000000000000013
#021361:23
#0223b1:1300003300000000
#022391:00000000000000330000000000000000
#022371:0023
#022360:0000001300000000
#022340:00000000000000330000000000000000
#022320:0023
#025320:0013000000000000
#025350:00230000
#025381:00130000
#0253b1:0000002300000000
#025350:0000001300000000
#025320:0023
#0253b1:0013
#025381:0000000000230000
#025320:0000000000130000
#025350:00000023
#025381:00000013
#0253b1:0000000000000023
#026371:13333323
#0263b1:0033003300000000
#026320:13333323
#026360:0033003300000000
#0293b0:0013000000000000
#029380:00230000
#029351:00130000
#029321:0000002300000000
#029380:0000001300000000
#0293b0:0023
#029321:0013
#029351:0000000000230000
#0293b0:0000000000130000
#029380:00000023
#029351:00000013
#029321:0000000000000023
#0303b1:0013
#030371:00000023
#030360:0013
#030320:00000023
#031390:13535353
#0313b0:0053000000530000
#031370:0000005300000053
#032390:53535353
#0323b0:0053000000530000
#032370:0000005300000053
#033390:23
#031341:13535353
#031361:0053000000530000
#031321:0000005300000053
#032341:53535353
#032361:0053000000530000
#032321:0000005300000053
#033341:23
#0333b1:0000000000001323
#0353b1:13
#035381:00230000
#035350:00130000
#035320:0023
#035381:0013
#0353b1:00000023
#035320:00000013
#035360:0000000000000033
#036320:23
#0353b1:0000000000000013
#036371:23
#037321:1300003300000000
#037341:00000000000000330000000000000000
#037361:0023
#037370:0000001300000000
#037390:00000000000000330000000000000000
#0373b0:0023
#0413c0:0012000000000000
#0413a0:00220000
#041361:00120000
#041341:0000002200000000
#041380:0000001200000000
#0413a0:0022
#041321:0012
#041341:0000000000220000
#0413c0:0000000000120000
#0413a0:00000022
#041361:00000012
#041341:0000000000000022
#042391:00123222
#0423c1:0000003200000000
#042330:00123222
#042360:0000003200000000
#045320:0012000000000000
#045340:00220000
#045381:00120000
#0453a1:0000002200000000
#045360:0000001200000000
#045340:0022
#0453c1:0012
#0453a1:0000000000220000
#045320:0000000000120000
#045340:00000022
#045381:00000012
#0453a1:0000000000000022
#0463a1:00001222
#046340:00001222
#048320:13
#048360:0023000000000000
#0483b0:00001323
#048370:0000000000330000
#048361:00000013
#048321:0000000000000023
#050361:13333300
#050321:0033003300002300
#0503b0:13333300
#050370:0033003300002300
#0523b0:13
#052370:0023000000000000
#052320:00001323
#052360:0000000000330000
#052371:00000013
#0523b1:0000000000000023
#054371:13333300
#0543b1:0033003300002300
#054320:13333300
#054360:0033003300002300
#055320:13
#055330:00330000000000000000000000000000
#055340:0033000000000000
#055350:00000033000000000000000000000000
#055360:00230000
#055371:13
#055381:00330000000000000000000000000000
#055391:0033000000000000
#0553a1:00000033000000000000000000000000
#0553b1:00230000
#0553b1:0013
#0553a1:00000000000000000033000000000000
#055391:0000000000330000
#055381:00000000000000000000003300000000
#055371:00000023
#055360:0013
#055350:00000000000000000033000000000000
#055340:0000000000330000
#055330:00000000000000000000003300000000
#055320:00000023
#0563b0:00001300002300000000000000000000
#056321:00000000001300002300000000000000
#056360:0014
#0563a0:00000024
#056361:00000013
#057321:33
#057331:00330000000000000000000000000000
#057341:0033000000000000
#057351:00000033000000000000000000000000
#057361:00230000
#057370:13
#057380:00330000000000000000000000000000
#057390:0033000000000000
#0573a0:00000033000000000000000000000000
#0573b0:00230000
#0573b0:0013
#0573a0:00000000000000000033000000000000
#057390:0000000000330000
#057380:00000000000000000000003300000000
#057370:00000023
#057361:0013
#057351:00000000000000000033000000000000
#057341:0000000000330000
#057331:00000000000000000000003300000000
#057321:00000023
#058381:13
#0583b1:0023000000000000
#058350:0013000000000000
#058320:00230000
#058381:00130000
#0583b1:0000002300000000
#058350:0000001300000000
#058320:00003323
#058371:00001323
#0593b1:13
#0593a1:00330000000000000000000000000000
#059391:0033000000000000
#059381:00000033000000000000000000000000
#059371:00230000
#059321:0013
#059331:00000000000000000033000000000000
#059341:0000000000330000
#059351:00000000000000000000003300000000
#059361:00000023
#060321:00001300002300000000000000000000
#0603b0:00000000001300002300000000000000
#060361:0014
#060321:00000024
#060370:00000013
#0613b0:33
#0613a0:00330000000000000000000000000000
#061390:0033000000000000
#061380:00000033000000000000000000000000
#061370:00230000
#061320:0013
#061330:00000000000000000033000000000000
#061340:0000000000330000
#061350:00000000000000000000003300000000
#061360:00000023
#062360:12
#062330:0022000000000000
#062381:0012000000000000
#0623b1:00220000
#062360:00120000
#062330:0000002200000000
#062381:0000001200000000
#0623b1:00003222
#062370:00001222
