This file was generated by Ched 2.7.0.0.
#TITLE ""
#ARTIST ""
#DESIGNER ""
#DIFFICULTY 0
#PLAYLEVEL
#SONGID ""
#WAVE ""
#WAVEOFFSET 0
#JACKET ""
#REQUEST "ticks_per_beat 480"
#00002: 4
#BPM01: 110
#00008: 01
#TIL00: ""
#HISPEED 00
#MEASUREHS 00
#00118:1300000013000023
#00115:0013001300002300
#0011b:00130000
#00112:0000000000230000
#00415:00000000000000000000000000000013
#0041b:00000000000000133300330000000000
#00412:3333000000000000
#0101b:0013001300130000
#01012:0000000013000013
#01016:00140014
#01112:0013000013000000
#0111b:1300001300230000
#01116:00140000
#01118:00000023
#01115:0000000000000023
#02318:0013000000130000
#0231b:0000001300000013
#02312:2323
#02315:00230023
#0231f:21
#02310:0041
#02415:0013000000130023
#02418:0000001300002300
#02412:23232323
#0241b:2300230023000023
#03118:1414
#0311a:00140000
#03116:00000014
#03312:0014000000140000
#0331a:00140014
#03314:0000001400000014
#03318:0014
#03418:13000013000013000000000000001300
#03415:00130000130000130000000000000000
#0341a:00000000000000000014001400000000
#03412:0000000000141400
#00212:00130000
#00218:0000001300000000
#00215:00001313
#0021b:0000000000130000
#00210:41
#00312:00000000000013000000000000000013
#00318:00131313
#00315:0013000000130000
#0031b:13
#00518:13333333003333330000001300000013
#0051b:00130000
#00515:0000000000232300
#00615:13000000000013000000130000000013
#00618:0000130013000013
#00612:00000013
#0061b:0013000000000000
#02112:0013000013000000
#02118:0000001300130013
#02115:00130013
#0211b:0013
#00015:00130000
#00012:0000000000130000
#00018:000000000000000000003333000000000000000000000000
#00715:00000000130000001300000000000013
#00718:1300001300130000
#0071b:00000013
#00712:0013000000000000
#0201b:13
#02018:00130000
#02015:00000013
#03918:0012000000120000
#0391a:0000001200000000
#0391b:0000000000000012
#03914:22
#03913:0022
#03916:00220022
#03910:41
#04018:2212000022120022
#04016:0000221200002200
#04014:2200000022000022
#0401a:00220022
#04214:12
#04218:0012000000000000
#04216:00120000
#0421a:0000001200000000
#04818:00000000001300000000000000000000
#04815:0023000000000000
#00818:00000000000000133300330000000013
#00815:3333000000000000
#00915:13333333003333330000001300000000
#00912:00130000
#00918:0000000000232300
#00910:41
#02512:0013000000000013
#02517:00130000
#02514:0000001300000000
#02519:0013
#02516:0000000000130000
#0251b:00000013
#02715:0013000000130000
#02712:0000001300000013
#0271b:2323
#02718:00230023
#02818:0013000000130023
#02815:0000001300002300
#0281b:23232323
#02812:2300230023000023
#0291b:0013000000000013
#02916:00130000
#02919:0000001300000000
#02914:0013
#02917:0000000000130000
#02912:00000013
#03218:1414
#0321a:00140000
#03216:00000014
#0361b:0013000013000000
#03615:0000001300130013
#03618:00130013
#03612:0013
#03512:13
#03515:00130000
#03518:00000013
#0411b:0013000000000013
#04118:00130013
#04115:0000001300130000
#04112:0013
#04316:0012000000120000
#04314:0000001200000000
#04313:0000000000000012
#0431a:22
#0431b:0022
#04318:00220022
#04416:2212000022120022
#04418:0000221200002200
#0441a:2200000022000022
#04414:00220022
#0461a:12
#04616:0012000000000000
#04618:00120000
#04614:0000001200000000
#04512:0013000000000013
#04515:00130013
#04518:0000001300130000
#0451b:0013
#04712:13333333000000000000000000000000
#0471b:00000000000000001333333300000000
#04912:13333333000000000000000000000000
#0491b:00000000000000001333333300000000
#04910:41
#05215:00000000001300000000000000000000
#05218:0023000000000000
#0511b:13333333000000000000000000000000
#05112:00000000000000001333333300000000
#0531b:13333333000000000000000000000000
#05312:00000000000000001333333300000000
#05512:13333333000000000000000000000000
#0551b:00000000000000001333333300000000
#0571b:13333333000000000000000000000000
#05712:00000000000000001333333300000000
#0581b:13
#05815:0013000000000000
#05818:00130000
#05812:0000001300000000
#0591b:13333333000000000000000000000000
#05912:00000000000000001333333300000000
#06112:13333333000000000000000000000000
#0611b:00000000000000001333333300000000
#06212:13
#06218:0013000000000000
#06215:00130000
#0621b:0000001300000000
#01418:00000000000000000000000000000013
#01412:00000000000000133300330000000000
#0141b:3333000000000000
#0121b:00130000
#01215:0000001300000000
#01218:00001313
#01212:0000000000130000
#0131b:00000000000013000000000000000013
#01315:00131313
#01318:0013000000130000
#01312:13
#01515:13333333003333330000001300000013
#01512:00130000
#01518:0000000000232300
#01510:41
#01618:13000000000013000000130000000013
#01615:0000130013000013
#0161b:00000013
#01612:0013000000000000
#0161f:11
#01718:00000000130000001300000000000013
#01715:1300001300130000
#01712:00000013
#0171b:0013000000000000
#01815:00000000000000133300330000000013
#01818:3333000000000000
#01918:13333333003333330000001300000000
#0191b:00130000
#01915:0000000000232300
#0221b:00000000000000330000230000000000
#02218:00000023
#02215:00000000000000330000000000002300
#0381a:0000000000220000
#03818:00000022
#03816:0000000000000022
#0371b:0000000000230000
#03719:00000023
#03717:0000000000000023
#03716:0000000000230000
#03714:00000023
#03712:00000000000000330000000000002300
#03718:00000000000000330000000000000000
#00158:1313
#03158:6454
#0315a:00240000
#03156:00000024
#00052:0000000000530000
#0205b:63
#02058:00630000
#05054:00000014
#05858:00000013
#00352:00000000000000000000000000000053
#0045b:00000000000000630000000000000000
#00558:53
#0055b:00530000
#00755:00000000000000000000000000000063
#00858:00000000000000530000000000000000
#00955:63
#00952:00630000
#0265a:00000014
#03052:00000014
#03258:6454
#0325a:00240000
#03256:00000024
#03552:53
#03555:00530000
#04752:53
#04755:00130000
#0475b:0063
#04758:00000013
#04952:53
#04955:00130000
#0495b:0063
#04958:00000013
#0515b:63
#05152:0053
#05158:00130000
#05155:00000013
#0535b:63
#05352:0053
#05358:00130000
#05355:00000013
#05458:00000014
#05552:53
#0555b:0063
#0575b:53
#05752:0053
#0595b:63
#05952:0053
#06152:63
#0615b:0063
#0135b:00000000000000000000000000000063
#01452:00000000000000530000000000000000
#01555:63
#01552:00630000
#01758:00000000000000000000000000000053
#01855:00000000000000630000000000000000
#01958:53
#0195b:00530000
#000380:1323000000000000
#0003b0:0000001300000000
#000380:000000000000000000003333230000000000000000000000
#000320:0000000000130000
#000350:0000000000000023
#0023b0:1323000000000000
#003320:00000000000000000000000000000013
#004320:3333000000000000
#004350:00000023000000000000000000000000
#0043b0:00000000000000133300330000000000
#004380:00000000000000000000002300000000
#005380:13333333003333332300000000000000
#0053b0:00330000
#007350:00000000000000000000000000000013
#008350:3333000000000000
#008320:00000023000000000000000000000000
#008380:00000000000000133300330000000000
#0083b0:00000000000000000000002300000000
#009350:13333333003333332300000000000000
#009320:00330000
#009320:0000000000000013
#010350:23
#012320:1323000000000000
#0133b0:00000000000000000000000000000013
#0143b0:3333000000000000
#014380:00000023000000000000000000000000
#014320:00000000000000133300330000000000
#014350:00000000000000000000002300000000
#015350:13333333003333332300000000000000
#015320:00330000
#017380:00000000000000000000000000000013
#018380:3333000000000000
#0183b0:00000023000000000000000000000000
#018350:00000000000000133300330000000000
#018320:00000000000000000000002300000000
#019380:13333333003333332300000000000000
#0193b0:00330000
#0203b0:1323
#020380:00330000
#020380:0000000000000013
#0213b0:23
#022350:13000000000033330000000000000000
#022320:0023
#0223b1:13000000000033330000000000000000
#022381:0023
#0263a1:14343424
#026381:0034003400000000
#030321:14343424
#030341:0034003400000000
#031381:1454
#0313a1:00540000
#031361:00000054
#032381:5454
#0323a1:00540000
#032361:00000054
#033381:24
#035321:1323
#035351:00330000
#035351:0000000000000013
#036321:23
#037381:13000000000033330000000000000000
#0373b1:0023
#037320:13000000000033330000000000000000
#037350:0023
#042340:00001222
#0463a0:00001222
#047320:13333333000000000000000000000000
#047350:00230000
#0473b0:00000000000000001333333300000000
#047380:00000023
#048320:0013
#048350:00000033
#049320:33333333000000000000000000000000
#049350:00230000
#0493b0:00000000000000001333333300000000
#049380:00000023
#050340:14343424
#050320:0034003400000000
#0513b0:13333333000000000000000000000000
#051380:00230000
#051320:00000000000000001333333300000000
#051350:00000023
#0523b0:0013
#052380:00000033
#0533b0:33333333000000000000000000000000
#053380:00230000
#053320:00000000000000001333333300000000
#053350:00000023
#054380:14343424
#0543a0:0034003400000000
#055320:13333333000000000000000000000000
#055350:00230000
#0553b0:00000000000000001333333300000000
#055380:00000023
#056320:0013000023000000
#056350:00000000003300000000000000000000
#056380:00000013
#0573b0:33333333000000000000000000000000
#057380:00230000
#057320:00000000000000001333333300000000
#057350:00000023
#058380:00001323
#0593b0:13333333000000000000000000000000
#059380:00230000
#059320:00000000000000001333333300000000
#059350:00000023
#0603b0:0013000023000000
#060380:00000000003300000000000000000000
#060350:00000013
#061320:33333333000000000000000000000000
#061350:00230000
#0613b0:00000000000000001333333300000000
#061380:00000023
#062350:00001323
