This file was generated by Ched 2.7.0.0.
#TITLE ""
#ARTIST ""
#DESIGNER ""
#DIFFICULTY 0
#PLAYLEVEL
#SONGID ""
#WAVE ""
#WAVEOFFSET 0
#JACKET ""
#REQUEST "ticks_per_beat 480"
#00002: 4
#BPM01: 110
#00008: 01
#TIL00: ""
#HISPEED 00
#MEASUREHS 00
#00112:1400000014000022
#0011c:0012001200220000
#00115:00120000
#00117:1212001212000000
#00119:00120000
#0011a:00000022
#00118:0000000000000022
#00116:0000000000220000
#00114:00000022
#00417:00000000000000000000001300000013
#00418:13
#00414:1300000000130000
#00419:0013000013000000
#00416:00000013000000000000000000000000
#00412:00000013000000130000000000000000
#00415:0013
#0041b:00000000000000000000001300000000
#0101a:0014001414140000
#01016:0012121200121400
#01012:0000120014000014
#01018:0000000000000012
#02315:00001300001300000000000000000000
#02318:00130000260013000014000000000000
#02316:0000000000140014
#02314:00000000000000000000000000140000
#0231b:23
#0231a:00002424
#02312:26232424
#0231f:21
#02310:0041
#02418:00001300001300130000130000000000
#02415:00130013000013000013001300000000
#02412:23232323
#0241b:2300230023000023
#02416:0000000000002424
#02615:0000000000000013
#02618:00000000000000000000000000000013
#02617:13
#02612:0013001300000000
#0261a:13
#0261b:0013001300000000
#02616:00130000
#02613:00130000
#0331a:0014001400140000
#03316:00140014001400140014001400000000
#03312:00141400
#0331b:0000000000001313
#03318:00000000000000000000000000000013
#03415:13000000000000000000130000000013
#0341b:00130000130000130000000013000000
#03418:00000013000000000000001300001300
#03416:0000001400000000
#03412:00130000130000130013000013000000
#0021c:00001200000000000000000000000012
#00212:00000000120000000000000012120000
#00217:12000000001200000000000000000000
#00214:0000001200120000
#00219:00000000000000120000001200000000
#00216:0012
#0021b:00000000000000000012000000000000
#00210:41
#0031c:00000012000012000000120000000000
#00312:00001200000000120000001200120000
#00318:00120000000000001200000000000000
#00316:12000000001200000012000000000000
#00317:00000000000000000000000012120000
#00319:00120000
#0031b:00000000000000000000000000000013
#00516:00000000000000130000000000000000
#00517:00000013000000000000000000000012
#00512:00330000000013001300000026000000
#00515:00000000000000000013000000000000
#0051b:00001300003300000000001300000000
#00518:0000000000230000
#00612:12000000000000120000000000001200
#0061a:00000000120000000000000012120000
#00614:00000000001200000000000000000000
#00618:0000001200000000
#0061c:0012000012000000
#00617:00000000000000000012000000000012
#0061b:0000000000120000
#00616:00000012000000000000001200000000
#02112:0013001313140000
#02116:1300001300001400
#0211a:0000000000000014
#0211b:13131300
#02117:0013000000000000
#02512:0013001300130013
#0251b:0013130013001300
#04218:00000000000000000000000000000012
#04216:0000000000000012
#04219:12
#04217:12120000
#04213:0012001200000000
#0421b:0012001200000000
#04215:00120000
#0481b:13000000131300000000000000001300
#04812:00000000000000131300000000000000
#04816:00002300001300000000130000000000
#00012:0000120000120000
#00016:000000000000000000001200000000130000000000000000
#00017:0000000000000012
#0001a:1200001200000000
#0001c:00120000
#00018:000000000000000000000012000000000000000000000000
#00014:0012
#0071c:00001200000000120000001200000000
#00716:00000000000000001200000012120000
#00718:00000000001200000012000000000000
#00712:1200001200120000
#00717:00000012000000000000000000000000
#00714:00000000000000000000000000000013
#0121c:00000000001200000000001200000012
#01212:1200000000120000
#01217:00120000120012000012000012120000
#01214:0013000013000000
#01219:00000013000000130000000000000000
#01312:0012001200120000
#0131c:00000000000000120000001200000000
#01314:1313
#01319:00130000000000000013000000000000
#01317:00000000000000000000000012120012
#0131a:00000000000000000000000000000014
#01318:00000012001200000000000000000000
#01316:00120000
#01416:14000014000000001400001400000000
#01417:00001200000000120000120000000000
#01413:00000012000000001200000000000000
#0141b:12000000000000000000001200000000
#01412:00000000000000140000000000000000
#0141c:00000000000000000000000000000012
#01516:14000014001400140000240000000014
#01512:00340000000000001400000026000000
#01514:00000000120000000014000000000000
#01518:00000000000000000000001400000000
#0151a:0012001200000000
#01510:41
#01915:0000000000000013
#01918:12000000000000000012000026000013
#0191a:0012
#01914:00000000000000000000001200000000
#01917:00000012001200120000000000000000
#01919:00140000
#01913:0014001400000000
#01916:0000000000220000
#0191c:00320000000000000000000000000000
#02212:1300131300000024
#02214:00000000000000130000000000000000
#02216:00001323
#02219:0000000000230000
#0221a:0000000000000024
#03919:00001200220000000012000022001200
#03915:0000221200002200
#03916:0000000000120000
#03917:00000000000000000000000000120000
#03912:2222
#0391c:2222
#03910:41
#04019:22001200000000000012000022000000
#04018:0000001200000000
#04016:0000000000120000
#04014:00120000000000000000000000000000
#04017:00000012000000000000000000000000
#04015:00000000220000120000000022000000
#0401c:00000000220000002200001200002200
#04012:2200000022000022
#04112:0012000000000000
#0411c:0000000000000012
#0471b:1313130000000000
#04717:00170017000000000000000000000000
#04712:00000000000000001317131713000000
#0511a:14
#05116:00181400140000000000141814000000
#05112:00000018000000001418000000000000
#00816:00001300000000000000000000000013
#00812:13000000000000000000001300000000
#00819:13000000000000130000001300000000
#00814:00000013000000001300000000000000
#0081b:00000013000000001300000000000000
#00817:0000000000130000
#00917:00000000000000130000000000000000
#0091b:00330000000013001300000000000000
#00918:00000000000000000013000026000000
#00912:00001300003300000000001300000000
#00916:00000013000000000000000000000000
#00915:0000000000230000
#00910:41
#01112:0014141400220000
#01118:1212001200220000
#0111a:00140022
#0111c:1200000000000022
#01116:0000000014000022
#01114:00000022
#01713:00000000000000000000000000000012
#01716:00000012001200000000000000000014
#0171b:0013001300130000
#01712:00000000000000130000001300000000
#01719:1212
#01715:00120000000000000012000000000000
#01717:00000000000000000000000012120000
#01718:00120000
#01817:12000012000000001200001200000000
#01816:00001400000000140000140000000000
#0181a:00000014000000001400000000000000
#01812:14000000000000000000001400000000
#0181b:00000000000000120000000000000000
#01814:00000000000000000000000000000014
#01612:00000000001300000000001200000013
#0161b:1300000000130000
#01617:00120000120012000012000012120000
#01619:0012000012000000
#01615:00000012000000120000000000000000
#0161f:11
#02012:1300130000000013
#02016:0013001300001300
#0201b:1313001300001300
#02017:0000130013000013
#02019:0000000000130000
#02718:26001300001300000000000000140000
#02714:00000000000000000014000000000000
#02716:0000000000140014
#02715:00130000000013000000000000000000
#02712:23262424
#0271b:00230000
#0271a:00002424
#02815:00001300001300130000130000000000
#02818:00130013000013000013001300000000
#0281b:23232323
#02812:2300230023000023
#02816:0000000000002424
#0291b:0013001300130013
#02912:0013130013001300
#03012:13131300
#03016:1313131313000000
#0301b:0013001300000000
#03118:13131313
#0311a:0013000000130000
#03115:13131313
#03117:0013000000130000
#03113:0000001300000013
#03116:0000001300000013
#03218:13131313
#0321a:0013000000130000
#03215:13131313
#03217:0013000000130000
#03213:0000001300000013
#03216:0000001300000013
#0361b:0013001313000000
#0361a:0000000000140000
#03616:0013000000001400
#03612:1300130013000014
#03617:1300001300000000
#0371b:1300131300000000
#03719:00000000000000130000000022000000
#03717:0013
#0371c:0000000000220000
#03715:00000022
#03712:0000000000000022
#03716:0000000000000022
#03718:0000000000220000
#0351b:1300130000000013
#03517:0013001300001300
#03512:1313001300001300
#03516:0000130013000013
#03514:0000000000130000
#04315:00001200220000000012000022001200
#04319:0000221200002200
#04318:0000000000120000
#04317:00000000000000000000000000120000
#0431c:2222
#04312:2222
#04415:22001200000000000012000022000000
#04416:0000001200000000
#04418:0000000000120000
#0441a:00120000000000000000000000000000
#04417:00000012000000000000000000000000
#04419:00000000220000120000000022000000
#04412:00000000220000002200001200002200
#0441c:2200000022000022
#0451c:0012000000000000
#04512:0000000000000012
#04917:1717170000000000
#0491b:00130013000000000000000000000000
#04912:00000000000000001713171317000000
#04910:41
#05017:13131300
#05012:0013001300000000
#0501b:13131300
#05016:0013001300000000
#05212:13000000131300000000000000001300
#0521b:00000000000000131300000000000000
#05217:00002300001300000000130000000000
#05312:18001800000000000000001418000000
#05316:00140000180000001814180000000000
#0531a:00000014000000000000000000000000
#05416:13131300
#0541b:0013001300000000
#05412:13131300
#05417:0013001300000000
#0581b:1313
#05812:00130013
#06016:13
#0601c:1212
#06017:00000000000000130000000000000000
#06012:0012000000121200
#05616:14000000000000140000000000000000
#05612:1313
#0561b:0013000000131300
#06218:00120012
#06213:0012
#06216:12
#0381a:0000000000220000
#03817:00000022
#03814:0000000000000022
#00056:0000000000530000
#01456:5464
#0475b:00130000
#04752:00000013
#05156:00140014
#00152:3434
#01857:6252
#01556:54
#01958:62
#02052:5300530000000023
#02056:0023002300006300
#02156:63
#02152:0023000000000000
#02552:0053005300530000
#0255b:00232323
#0265b:0023002300000000
#02652:0023002300000000
#0265a:53000013
#02657:53000013
#02656:00530000
#02653:00530000
#02952:00535353
#0295b:0023002300230000
#03052:0023
#03056:0053
#03057:00000013
#0305b:00000013
#03158:53535353
#03155:53535353
#0315a:0023000000230000
#03157:0023000000230000
#03156:0000002300000023
#03153:0000002300000023
#03258:53535353
#0325a:0023000000230000
#03255:53535353
#03257:0023000000230000
#03253:0000002300000023
#03256:0000002300000023
#0355b:6300630000000023
#03557:0023002300005300
#03657:53
#0365b:0023000000000000
#04658:00000012
#04652:00000012
#04259:52000012
#04257:52520012
#04255:00520000
#0425b:0022002200000000
#04253:0022002200000000
#04957:00170000
#04952:00000017
#05052:0053005300001300
#05057:53535300
#0505b:53535300
#05056:0053005300001300
#05356:00180000
#05352:00000018
#05456:63636300
#0545b:0063006300001300
#05452:63636300
#05457:0063006300001300
#0585b:0053
#05856:00000013
#05852:00000013
#0605c:0052
#05652:0063
#06253:0062
#000340:12
#000370:0022000000000000
#000360:0000000000130000
#0003b0:0000000000000023
#002320:13
#002370:0023000000000000
#005320:13330000000000000000000000000000
#005370:0023000000000000
#0053b0:00000000133300000000000000000000
#005360:0000002300000000
#0093b0:13330000000000000000000000000000
#009360:0023000000000000
#009320:00000000133300000000000000000000
#009370:0000002300000000
#009370:0000000000000013
#010320:23
#0093b1:0000000000000013
#010361:23
#014361:14
#014321:0024000000000000
#014361:0014
#0143a1:0000000000240000
#015361:14
#015321:00342400000000000000000000000000
#018371:12
#0183b1:0022000000000000
#018371:0012
#018331:0000000000220000
#019381:12
#0193c1:00322200000000000000000000000000
#020321:1300330033000053
#020361:0053005300003300
#021361:33230000
#021321:0053000000000000
#0223b1:1323
#022371:0000003300000000
#022391:00000000000000330000000000000000
#025321:0013000000000000
#025371:00230000
#0253b0:00130000
#025360:0000002300000000
#025321:0000001300000000
#025371:0023
#0253b0:0013
#025360:0000000000230000
#025321:0000000000130000
#025371:00000023
#0253b0:00000013
#025360:0000000000000023
#0263a0:13003323
#0263b0:0033003300000000
#026360:00330000
#026371:13003323
#026321:0033003300000000
#026331:00330000
#0293b1:0013000000000000
#029361:00230000
#029320:00130000
#029370:0000002300000000
#0293b1:0000001300000000
#029361:0023
#029320:0013
#029370:0000000000230000
#0293b1:0000000000130000
#029361:00000023
#029320:00000013
#029370:0000000000000023
#030360:0013
#0303b0:00000023
#030321:0013
#030371:00000023
#031381:13535353
#0313a1:0053000000530000
#031361:0000005300000053
#032381:53535353
#0323a1:0053000000530000
#032361:0000005300000053
#033381:23
#031350:13535353
#031370:0053000000530000
#031330:0000005300000053
#032350:53535353
#032370:0053000000530000
#032330:0000005300000053
#033350:23
#033320:0000000000001323
#0353b0:1300330033000053
#035370:0053005300003300
#036370:33230000
#0363b0:0053000000000000
#037320:1323
#037360:0000003300000000
#037340:00000000000000330000000000000000
#0413c0:0012000000000000
#041380:00220000
#041361:0000122200000000
#041381:00000000005200000000000000000000
#041380:0000001200000000
#0413c0:0022
#041321:0012
#041361:0000000000220000
#041380:0000000000122200
#041360:00000000000000000000005200000000
#041361:00000012
#041321:0000000000000022
#042371:12003222
#042331:0032003200000000
#042351:00320000
#042390:12003222
#0423b0:0032003200000000
#042370:00320000
#045320:0012000000000000
#045360:00220000
#045381:0000122200000000
#045361:00000000005200000000000000000000
#045360:0000001200000000
#045320:0022
#0453c1:0012
#045381:0000000000220000
#045360:0000000000122200
#045380:00000000000000000000005200000000
#045381:00000012
#0453c1:0000000000000022
#046381:12323222
#0463c1:0032003200000000
#046320:12323222
#046360:0032003200000000
#048370:13
#048320:0023000000000000
#048370:00001323
#0483b0:0000000000330000
#048321:00000013
#048371:0000000000000023
#050371:13333300
#050321:0033003300002300
#0503b0:13333300
#050360:0033003300002300
#052360:13
#0523b0:0023000000000000
#052360:00001323
#052320:0000000000330000
#0523b1:00000013
#052361:0000000000000023
#054361:13333300
#0543b1:0033003300002300
#054320:13333300
#054370:0033003300002300
#055320:14240000
#055350:00340034000000000000000000000000
#055380:0034000000000000
#0553a0:00001424
#055370:00000000000000000034003400000000
#055340:0000000000340000
#056360:00001400002400000000000000000000
#0563b1:00000000001300002300000000000000
#056320:0013
#056360:00000023
#0573a0:14240000
#057370:00340034000000000000000000000000
#057340:0034000000000000
#057320:00001424
#057350:00000000000000000034003400000000
#057380:0000000000340000
#058370:13
#058320:0023000000000000
#0583b1:0013002300000000
#058361:00330000
#058320:0000001300000000
#058370:0023
#0583b1:0013
#058361:00000023
#0593b1:13230000
#059381:00330033000000000000000000000000
#059351:0033000000000000
#059321:00001323
#059351:00000000000000000033003300000000
#059381:0000000000330000
#060371:00001300002300000000000000000000
#060320:00000000001200002200000000000000
#0603c1:0012
#060371:00000022
#061321:13230000
#061351:00330033000000000000000000000000
#061381:0033000000000000
#0613b1:00001323
#061381:00000000000000000033003300000000
#061351:0000000000330000
#062381:12
#0623b1:0022000000000000
#062330:0012002200000000
#062360:00320000
#0623b1:0000001200000000
#062381:0022
#062330:0012
#062360:00000022
