This file was generated by Ched 2.7.0.0.
#TITLE ""
#ARTIST ""
#DESIGNER ""
#DIFFICULTY 0
#PLAYLEVEL
#SONGID ""
#WAVE ""
#WAVEOFFSET 0
#JACKET ""
#REQUEST "ticks_per_beat 480"
#00002: 4
#BPM01: 110
#00008: 01
#TIL00: ""
#HISPEED 00
#MEASUREHS 00
#00514:1414
#00518:00140014
#02314:00001414
#0231a:24140000
#0231f:21
#02310:0041
#02412:00140014
#02418:1414
#01312:14001414
#01318:00140000
#04812:14
#04818:00000014
#04813:0034000000000000
#04814:00000000003400000000000000000000
#0471a:00001414
#04712:24140000
#0491a:00001414
#04912:24140000
#04910:41
#0121a:14001414
#01214:00140000
#00112:1414
#0001a:1414
#0041a:14
#00412:0014
#00414:14
#00418:0014
#0151a:14
#01514:00140000
#01510:41
#00918:1414
#00914:00140014
#00910:41
#00818:14
#00814:0014
#00812:14
#0081a:0014
#0021a:1414
#00214:00140000
#00210:41
#00312:1414
#00318:00140000
#03215:14
#03214:0034
#05014:14140000
#05018:0014001400000000
#02218:14
#02214:00140000
#0221a:0014
#02212:0014
#03818:14
#03814:00140000
#0381a:0014
#03812:0014
#02718:00001414
#02712:14140000
#0281a:00140014
#02814:1414
#04418:00000014
#0441a:14
#04419:00340000
#04314:00000014
#04312:14
#04313:00340000
#05913:1414
#05912:00000014
#05914:00140000
#06119:1414
#06118:00140000
#0611a:00000014
#0171a:14001414
#01714:00140000
#01612:14001414
#01618:00140000
#0161f:11
#01912:14
#01918:00140000
#0201a:14
#02112:14
#03318:0014
#03714:14
#03718:00140000
#03712:0014
#0371a:0014
#03512:14
#0361a:14
#03414:14
#03418:0014
#0391a:14
#03919:00340000
#03918:0034
#03910:41
#04012:14
#04013:00340000
#04014:0034
#0521a:14
#05214:00000014
#05219:0034000000000000
#05218:00000000003400000000000000000000
#05112:00001414
#0511a:24140000
#05312:00001414
#0531a:24140000
#05418:14140000
#05414:0014001400000000
#03018:00000024
#03112:24
#03114:0034
#04618:00000024
#0071a:00343400
#00612:00343400
#01112:00343400
#0101a:00343400
#03255:24
#04852:54
#04352:64
#0445a:64
#05953:5464
#05952:00000024
#05954:00240000
#06159:6454
#06158:00240000
#0615a:00000024
#0205a:54
#02152:64
#03152:64
#03552:64
#0365a:54
#0395a:64
#04052:54
#03052:0014
#0265a:0014
#0525a:64
#006340:14
#006320:00343424
#007380:14
#0073a0:00343424
#010380:14
#0103a0:00343424
#011340:14
#011320:00343424
#014380:14240000
#014340:00001424
#0153a0:00001424
#018340:14240000
#018380:00001424
#019320:00001424
#0203a0:14
#020380:0024
#021320:14
#021340:0024
#025380:14
#025390:00340034
#0253a0:0034
#026380:34
#026390:00340000
#0263a0:0024
#029340:14
#029330:00340034
#029320:0034
#030340:34
#030330:00340000
#030320:0024
#031320:14
#031340:0034
#032350:34
#032340:0034
#033320:24
#035320:14
#035340:0024
#0363a0:14
#036380:0024
#0393a0:14
#039390:00340000
#039380:00003424
#040320:14
#040330:00340000
#040340:00003424
#0413a0:14
#041390:00340034
#041380:0034
#0423a0:34
#042390:00340000
#042380:0024
#043320:14
#043330:00340000
#043340:0024
#0443a0:14
#044390:00340000
#044380:0024
#045340:14
#045330:00340034
#045320:0034
#046340:34
#046330:00340000
#046320:0024
#048320:14
#048330:0034000000000000
#048340:00000000003400002400000000000000
#050340:00001424
#0523a0:14
#052390:0034000000000000
#052380:00000000003400002400000000000000
#054380:00001424
#055320:14240000
#0553a0:00001424
#056340:14003400003400003400000024000000
#0573a0:14240000
#057320:00001424
#058380:1434343434002400
#059330:1434
#059340:00540000
#059320:00000054
#060330:34003400003400003400000024000000
#061390:1434
#061380:00540000
#0613a0:00000054
#062390:3434343434002400
