This file was generated by Ched 2.6.4.0.
#TITLE ""
#ARTIST ""
#DESIGNER ""
#DIFFICULTY 0
#PLAYLEVEL
#SONGID ""
#WAVE ""
#WAVEOFFSET 0
#JACKET ""
#REQUEST "ticks_per_beat 480"
#00002: 4
#BPM01: 180
#00008: 01
#TIL00: ""
#HISPEED 00
#MEASUREHS 00
#0001a:14
#0011a:14
#00212:14
#00312:14
#00418:14
#00518:14
#00614:14
#00714:14
#01914:14
#0201a:14
#02114:14
#02218:14
#02312:14
#02418:14
#02512:14
#0261a:14
#02714:14
#02818:14
#02810:41
#02912:14
#0301a:14
#03114:14
#03218:14
#03312:14
#04418:16
#04412:0016
#05212:16
#05218:0016
#05210:41
#05418:1616
#05512:1616
#07412:16
#07418:0016
#07518:0016
#07512:16
#08218:16
#08212:0016
#08312:0016
#08318:16
#08418:1616
#08410:41
#08512:1616
#08618:16
#08612:0016
#08712:0016
#08718:16
#08818:14
#08918:14
#09012:14
#09112:14
#0921a:14
#0931a:14
#09414:14
#0561f:11
#03818:2626
#04018:2626
#04218:2626
#04612:2626
#04812:2626
#05012:2626
#06818:26
#06812:0026
#0681f:21
#07012:26
#07018:0026
#07218:26
#07212:0026
#07612:26
#07618:0026
#07818:26
#07812:0026
#08012:26
#08018:0026
#06910:41
#00810:41
#01810:41
#0083a0:14000034
#0093a0:0024
#010320:14000034
#011320:0024
#012380:14000034
#013380:0024
#014340:14000034
#015340:0024
#0163a0:1434
#0173a0:3434
#0183a0:24
#0343a0:14
#0353a0:24
#036320:14
#037320:24
#039320:1626
#041320:1626
#043320:1626
#045380:1626
#047380:1626
#049380:1626
#051380:1626
#053320:1626
#0563a0:14
#056390:00000034
#057380:0024
#058320:14
#058330:00000034
#059340:0024
#060380:14
#060390:00000034
#0613a0:0024
#062340:14
#062330:00000034
#063320:0024
#064380:14
#065380:24
#066340:14
#067340:24
#069380:1626
#071320:1626
#073380:1626
#077320:1626
#079380:1626
#081320:1626
#095340:14000024
