This file was generated by Ched 2.6.4.0.
#TITLE ""
#ARTIST ""
#DESIGNER ""
#DIFFICULTY 0
#PLAYLEVEL
#SONGID ""
#WAVE ""
#WAVEOFFSET 0
#JACKET ""
#REQUEST "ticks_per_beat 480"
#00002: 4
#BPM01: 180
#00008: 01
#TIL00: ""
#HISPEED 00
#MEASUREHS 00
#00018:000000000013000000000013
#00012:1313
#0001b:131300001300
#00015:00130013
#00112:1313
#0011b:001300001300
#00115:000000130000000000130013
#00118:000000000013000000001300
#00218:13130013
#00215:000000000013000000000013
#0021b:0013
#00212:001300001300
#0031b:1313
#00312:001300001300
#00318:000000130000000000130013
#00315:000000000013000000001300
#00415:13
#0041b:000013000000000000000013
#00416:00130000
#00417:000013
#00412:00000013
#00414:0013
#00419:000000000013000000000000
#00616:001200000000
#00618:00121314
#00615:000000000013000000000000
#00614:000014
#00613:000000000000000000000015
#0061b:13
#00718:15162600
#00712:000016000016000000260000
#00815:00000013
#00818:000000000000000000000013
#00812:000000130000000000000013
#0081b:13
#0081a:003300000000000000000000
#00819:003300000000
#00813:003300
#00814:000000000033000000000000
#00810:41
#00915:000000130013000000000000
#0091b:001300130000
#0091a:000000000000003300000000
#00919:000033
#0181b:2313
#01815:000000000000000013000013
#01812:2313
#01818:00130000
#01810:41
#01918:00130000
#01912:001300000000130000000000
#01915:00000013
#03412:13
#03414:00130000
#0341b:0013
#03419:00000013
#03417:23
#03416:0023
#03515:00132300
#03518:23000013
#03512:23
#0351b:0023
#03717:00000012
#03712:24
#03716:00240000
#0371a:2324
#03713:0023
#0381b:23000013
#03815:000000000000000000130013
#03812:23232300
#03819:00230000
#03817:0023
#0391b:001300000000
#03915:00130000
#03912:001300000000000000001300000000000000000000000000
#03916:00000013
#03917:0013
#04018:00000013
#04012:00002313
#0401b:230000230000230000000013
#04016:23
#04014:00230000
#04115:001300000000
#0411b:00130013
#04117:000000000013000000000000
#04112:0013
#04118:001300000000000000000000000000000000000000000000
#0421b:00230013
#04212:230000000000230000130013
#04217:2323
#04216:00230000
#04318:001300000000
#04312:00130013
#04315:001300000000000000001300000000000000000000000000
#0431b:0013
#04515:000000000013000000000000
#04512:00000013
#04518:0013
#04412:130000000000000000130013
#0441b:000000000000000000000013
#04612:23000013
#04618:000000000000000000130013
#0461b:23232300
#04614:00230000
#04616:0023
#04712:001300000000
#04718:00130000
#0471b:001300000000000000001300000000000000000000000000
#04717:00000013
#04716:0013
#04815:00000013
#0481b:00002313
#04812:230000230000230000000013
#04817:23
#04819:00230000
#04918:001300000000
#04912:00130013
#04916:000000000013000000000000
#0491b:0013
#04915:001300000000000000000000000000000000000000000000
#05012:00230013
#0501b:230000000000230000130013
#05016:2323
#05017:00230000
#05115:001300000000
#0511b:00130013
#05118:001300000000000000001300000000000000000000000000
#05112:0013
#05318:000000000013000000000000
#0531b:00000013
#05315:0013
#0521b:130000000000000000130013
#05212:000000000000000000000013
#05210:41
#05412:13130000
#0541b:00001313
#05416:24242424
#05512:1313
#0551b:00130013
#05516:24242424
#07118:001300000000000000001300000000000000000000000000
#0711b:00130013
#07112:001300130000
#07115:0000000000130000
#07415:00000013
#07412:130000000000000000000013
#0741b:000000000000000000000013
#07515:001300000013000000000000
#07512:00000013
#07518:000013000000000000000000000000130000000000000000
#0751b:0013
#06918:001300130000
#06915:00130000
#06912:001300000000000000001300000000000000130000000000
#0691b:0000000000130000
#06910:41
#06812:23232313
#06815:000000000000000000000013
#0681a:24
#06818:00240000
#06816:0024
#0681f:21
#07017:00000013
#0701b:230000230000230000000013
#07016:24
#07012:0024
#07014:00240000
#01012:00000013
#01015:000000130000000000000013
#0101b:000000000000000000000013
#01018:13
#01019:003300000000000000000000
#0101a:003300000000
#01014:003300
#01013:000000000033000000000000
#01118:000000130013000000000000
#01115:001300130000
#01114:000000000000003300000000
#01113:000033
#01218:00000013
#01215:000000000000000000000013
#0121b:000000130000000000000013
#01212:13
#01213:003300000000000000000000
#01214:003300000000
#0121a:003300
#01219:000000000033000000000000
#01318:000000130013000000000000
#01312:001300130000
#01313:000000000000003300000000
#01314:000033
#0141b:00000013
#01418:000000130000000000000013
#01412:000000000000000000000013
#01415:13
#01414:003300000000000000000000
#01413:003300000000
#01419:003300
#0141a:000000000033000000000000
#01515:000000130013000000000000
#01518:001300130000
#01519:000000000000003300000000
#0151a:000033
#00515:000000000000000000000013
#00518:000000000013
#00512:13000013
#00517:000013
#00514:0013
#00519:000000000013000000000000
#00516:00130000
#0051b:001300000000
#0731b:000000000013000000130000
#07318:001300000000
#07315:001300000000000000000000130000000000000000000000
#07312:0000130000130000
#07215:00000013
#07212:230000000000230000000013
#07216:24242400
#0721b:00230000
#08812:230000000013000000000013
#0881b:2313
#08815:001300001300
#08818:00130013
#0891b:130000000000130000000013
#08915:001300001313
#08918:00130013
#08912:000000000013000000000000
#0901b:000000000013000000000013
#09012:1313
#09018:001300001300
#09015:00130013
#09112:130000000000130000000013
#09118:001300001313
#09115:00130013
#0911b:000000000013000000000000
#0921a:00130000
#09215:001300000000
#0921b:13
#09219:0013
#09214:000000000013000000000000
#09218:00000013
#09213:000013
#09212:000000000000000000000013
#09317:13
#09318:000000130000000000000013
#09312:001300000013
#09319:0013
#09314:000000000013000000000000
#0931b:00000013
#09315:000013
#09415:1312
#09416:00120000
#09418:001200000000
#09419:000000000012000000000000
#09414:00000012
#0941a:000012
#0941b:000000000000000000000012
#05612:2300001300001300
#0561b:000033000000130000000013
#05616:000000000000000000000013
#05617:130033
#05615:00130000
#0561f:11
#05619:003300000000003300000000
#05613:000000003333000000000000
#05712:000000000013000000000033
#05718:001300000000
#05715:00130000
#05717:0013
#05716:00000013
#05714:000000000033
#05719:000000000000003300000000
#0571b:000033
#05816:00000013
#05812:000000130000000000000013
#05817:000033000000130000000013
#0581b:130033
#05815:0000001300000000
#05819:003300000000003300000000
#05814:000000003333000000000000
#05917:000000000013000000000000
#05916:001300003300
#0591b:00130000
#05912:0013
#05914:000000000000003300000000
#0601b:0000001300001300
#06012:000033000000130000000013
#06017:000000000000000000000013
#06016:130033
#06018:00130000
#06014:003300000000003300000000
#0601a:000000003333000000000000
#0611b:000000000013000000000033
#06115:001300000000
#06118:00130000
#06116:0013
#06117:00000013
#06119:000000000033
#06114:000000000000003300000000
#06112:000033
#06217:00000013
#0621b:000000130000000000000013
#06216:000033000000130000000013
#06212:130033
#06218:0000001300000000
#06214:003300000000003300000000
#06219:000000003333000000000000
#06316:000000000013000000000000
#06317:001300003300
#06312:00130013
#0631b:0013
#06319:000000000000003300000000
#0641b:13
#06419:00130000
#06412:0013
#06414:00000013
#06415:24
#06417:0024
#06518:00132400
#06515:00000013
#06514:24
#0651b:23
#06512:0023
#06717:00000012
#06712:2424
#0671a:2424
#06716:00240000
#02018:000000130000000013000000
#0201b:130000000000000000000000000000000000001300000000
#02012:000013
#02015:000000000000000000000000000000000000001300000000
#02118:000000000013000013000013
#02115:0013
#02215:000000130000000013000013
#02218:00001313
#0221b:001300000000000000000000
#0241b:000000000013000000000013
#02418:130013
#02415:000000000000130000000013
#02412:13
#02512:001300001300
#02515:000000000013000000000000
#02518:00230023
#0251b:0023
#02615:00130000
#02618:0013
#0261b:23000013
#02612:23
#02712:00130013
#02715:1313
#0271b:0013
#02718:00000013
#02818:00131300
#02815:130000000000000000000013
#02812:0013
#0281b:000000000000000000000013
#02810:41
#03012:000000131300
#03018:000000131300
#03216:000000130000000000000013
#03217:000013
#0321b:000000000000000000000013
#03312:00131300
#03317:0013
#0331b:00000013
#0311b:000000130000000013000000
#03112:000000130000000000000013
#03118:000000000013000000000000
#03117:000000000000000000000013
#03115:0013
#02312:001300000000130000000000
#0231b:00130013
#02318:0013
#02315:00000013
#09513:12
#0951c:001200000000
#09512:00120000
#09518:000000000013000000000000
#07915:001300000000000000001300000000000000000000000000
#07912:00130013
#0791b:001300130000
#07918:0000000000130000
#08218:00000013
#0821b:130000000000000000000013
#08212:000000000000000000000013
#08318:001300000013000000000000
#0831b:00000013
#08315:000013000000000000000000000000130000000000000000
#08312:0013
#07715:001300130000
#07718:00130000
#0771b:001300000000000000001300000000000000130000000000
#07712:0000000000130000
#0761b:23232313
#07618:000000000000000000000013
#07612:24
#07614:00240000
#07616:0024
#07816:24000013
#07812:230000230000230000000013
#0781a:0024
#07818:00240000
#08112:000000000013000000130000
#08115:001300000000
#08118:001300000000000000000000130000000000000000000000
#0811b:0000130000130000
#08018:00000013
#0801b:230000000000230000000013
#08016:24242400
#08012:00230000
#08712:1324
#08715:0013000000000000
#0871b:0013
#08718:0000000000130000
#0871a:24
#08716:00240024
#0291b:000000000000000013000013
#02915:000000000000000000130013
#02912:001300000000000000000000130000000000000000000000
#02918:001300000000000000000000000000000000000000000000
#0851a:24
#08516:00240024
#08512:0024
#0861a:24
#08616:00240024
#08612:0024
#0841a:24
#08416:00240024
#08412:0024
#08410:41
#03612:23
#03616:00230000
#0361b:0023
#03617:00000023
#03619:23
#03614:0023
#06613:24
#06619:0024
#0661b:23
#06612:0023
#06617:00230000
#06616:00000023
#03757:00000012
#00852:16530000
#0085b:63
#01757:00000012
#06757:00000012
#0095b:0063
#01058:53
#01055:00630000
#01155:0063
#0125b:00630000
#01252:53
#01352:0053
#01455:63
#01458:00530000
#01558:0053
#01855:000000000000000000000063
#01952:002300000000000000000000
#02158:000000000000000000000053
#0225b:002300000000000000000000
#02255:000000000000000000000063
#02352:002300000000000000000000
#0245b:000000000000000000000063
#02452:13
#02458:13
#02855:630000000000000000000063
#0285b:000000000000000000000063
#02858:0053
#03052:000053
#03058:000053
#03055:000000000000000000000013
#0305b:000000000000000000000013
#03157:000000000000000000000053
#0325b:000000000000000000000063
#03352:0053
#03957:0053
#03952:002300000000000000000000000000000000000000000000
#03956:00000013
#04152:0053
#04158:002300000000000000000000000000000000000000000000
#0415b:00000013
#0435b:0063
#04355:002300000000000000000000000000000000000000000000
#04352:00000013
#0445b:000000000000000000000063
#04452:000000000000000000000053
#04558:0053
#0455b:00000013
#04552:00000013
#04756:0063
#0475b:002300000000000000000000000000000000000000000000
#04757:00000013
#0495b:0063
#04955:002300000000000000000000000000000000000000000000
#04952:00000013
#05152:0053
#05158:002300000000000000000000000000000000000000000000
#0515b:00000013
#05252:000000000000000000000053
#0525b:000000000000000000000063
#05355:0063
#05352:00000013
#0535b:00000013
#05657:53
#0565b:0063
#05655:00630000
#05652:0000002300000000
#05757:0053
#05756:00000063
#0585b:63
#05857:0053
#05852:00530000
#05855:0000002300000000
#05952:0053
#06056:63
#06052:0053
#06058:00530000
#0605b:0000002300000000
#06156:0063
#06157:00000053
#06252:53
#06256:0063
#0625b:00630000
#06258:0000002300000000
#0635b:0063
#0705b:000000000000000000000063
#07158:002300000000000000000000000000000000000000000000
#07152:0053
#07155:0000000000230000
#0715b:00000013
#07452:000000000000000000000053
#0745b:000000000000000000000063
#07555:002300000000000000000000
#07558:000023000000000000000000000000230000000000000000
#07552:00000033
#0755b:00006343
#09555:00000013
#03855:000000000000000000000063
#0405b:000000000000000000000063
#04252:000000000000000000000053
#04658:000000000000000000000053
#04852:000000000000000000000053
#0505b:000000000000000000000063
#06855:000000000000000000000063
#06952:002300000000000000000000000000000000130000000000
#06958:0053
#0695b:0000000000230000
#07355:002300000000000000000000630000000000000000000000
#07352:0000000000230000
#0735b:00000013
#07252:000000000000000000000053
#0835b:00000043
#08358:002300000000000000000000
#08355:000023000000000000000000000000230000000000000000
#08352:00005333
#0775b:002300000000000000000000000000000000130000000000
#07755:0063
#07752:0000000000230000
#07952:00000013
#07955:002300000000000000000000000000000000000000000000
#0795b:0063
#07958:0000000000230000
#07852:000000000000000000000053
#0825b:000000000000000000000063
#08252:000000000000000000000053
#07658:000000000000000000000053
#08158:002300000000000000000000530000000000000000000000
#0815b:0000000000230000
#08152:00000013
#0805b:000000000000000000000063
#08752:53330000
#08755:0023000000000000
#0875b:00006343
#08758:0000000000230000
#02955:000043000000000000000063
#0295b:000043000000000000000063
#02952:002300000000000000000000000000000000000000000000
#02958:002300000000000000000000000000000000000000000000
#0555b:00000013
#08652:00130000
#0865b:00000013
#02052:000000000000000053000033
#02058:000000000000000053000033
#0205b:000000000000000000000000000000000000002300000000
#02055:000000000000000000000000000000000000002300000000
#02758:00000053
#007380:00001626
#007321:00000016
#008321:26
#0083b0:13
#0083a0:003300000000000000000000
#008390:003300000000
#008380:00230000
#008321:00130000
#008331:003300
#008341:000000000033000000000000
#008351:0023
#0083b0:000000000000133333230000
#0093b0:0013
#0093a0:000000000000003300000000
#009390:000033
#009380:00000023
#009351:000000000000000000133333
#010351:23
#010380:13
#010390:003300000000000000000000
#0103a0:003300000000
#0103b0:00230000
#010351:00130000
#010341:003300
#010331:000000000033000000000000
#010321:0023
#010380:000000000000133333230000
#011350:0013
#011340:000000000000003300000000
#011330:000033
#011320:00000023
#011381:000000000000000000133333
#012381:23
#012320:13
#012330:003300000000000000000000
#012340:003300000000
#012350:00230000
#0123b1:00130000
#0123a1:003300
#012391:000000000033000000000000
#012381:0023
#012320:000000000000133333230000
#013320:0013
#013330:000000000000003300000000
#013340:000033
#013350:00000023
#013381:000000000000000000133333
#014381:23
#014350:13
#014340:003300000000000000000000
#014330:003300000000
#014320:00230000
#014381:00130000
#014391:003300
#0143a1:000000000033000000000000
#0143b1:0023
#014350:000000000000133333230000
#015380:0013
#015390:000000000000003300000000
#0153a0:000033
#0153b0:00000023
#015351:000000000000000000133333
#016351:23
#0163b0:135353535353230000000000000000000000000000000000
#0163a0:005300530053005300530053000000000000000000000000000000000000000000000000000000000000000000000000
#016321:000000000000135353535353230000000000000000000000
#016331:000000000000000000000000005300530053005300530053000000000000000000000000000000000000000000000000
#0163a0:000000000000000000000000135353535353230000000000
#016390:000000000000000000000000000000000000000000000000005300530053005300530053000000000000000000000000
#016331:000000000000000000000000000000000000135353535353
#016341:000000000000000000000000000000000000000000000000000000000000000000000000005300530053005300530053
#017331:23
#017390:135353535353230000000000000000000000000000000000
#0173a0:005300530053005300530053000000000000000000000000000000000000000000000000000000000000000000000000
#017341:000000000000135353535353230000000000000000000000
#017331:000000000000000000000000005300530053005300530053000000000000000000000000000000000000000000000000
#017370:000000000000000000000000125252520000220000000000
#017380:000000000000000000000000000000000000000000000000005200520052000000000000000000000000000000000000
#0183b0:000000000000000000130023
#018351:000000000000000000000013
#019321:005300000000000000000000
#019351:00230000
#019381:0013
#0193b1:00000023
#020351:13
#020321:00230000
#020381:000000000000130033000023
#0203b1:000000000000000000000000000000000000005300000000
#020320:000000000000000013000023
#020350:000000000000000000000000000000000000005300000000
#021320:000000000000000000130023
#021381:000000000000000000000013
#0223b1:005300000000000000000000
#022381:00230000
#022351:000000000000000000000013
#023321:005300000000000000000000
#023351:00230000
#0243b1:000000000000000000000013
#025381:002300000000
#026321:0013
#026351:00000023
#0273b1:13
#027381:00230000
#027381:00000013
#0283b1:23
#028350:13
#028320:00230000
#028380:0013
#0283b0:00000023
#028351:000000000000000000130033
#029321:005300000000000000000000000000000000000000000000
#029351:002300000000
#0283b0:000000000000000000000013
#029380:005300000000000000000000000000000000000000000000
#0293b0:002300000000
#029350:000000000000000000000013
#030320:00230000
#0293b1:000000000000000000000013
#030381:00230000
#030381:000013
#0303b1:000000000000000000000023
#030320:000013
#030350:000000000000000000000023
#031370:000000000000000000000013
#0323b0:00230000
#032320:000000132300
#0323b0:000000000000000000000013
#033370:00230000
#033320:0013
#033360:00000023
#034370:135353535353230000000000000000000000000000000000
#034380:005300530053005300530053000000000000000000000000000000000000000000000000000000000000000000000000
#034360:000000000000000000000000135353535353230000000000
#034350:000000000000000000000000000000000000000000000000005300530053005300530053000000000000000000000000
#035380:135353535353230000000000000000000000000000000000
#035390:005300530053005300530053000000000000000000000000000000000000000000000000000000000000000000000000
#035350:000000000000000000000000135353535353230000000000
#035340:000000000000000000000000000000000000000000000000005300530053005300530053000000000000000000000000
#036390:135353535353230000000000000000000000000000000000
#0363a0:005300530053005300530053000000000000000000000000000000000000000000000000000000000000000000000000
#036340:000000000000000000000000135353535353230000000000
#036330:000000000000000000000000000000000000000000000000005300530053005300530053000000000000000000000000
#0373a0:135353535353230000000000000000000000000000000000
#0373b0:005300530053005300530053000000000000000000000000000000000000000000000000000000000000000000000000
#037330:000000000000000000000000135353530000230000000000
#037320:000000000000000000000000000000000000000000000000005300530053000000000000000000000000000000000000
#038350:000000000000000000000013
#039320:005300000000000000000000000000000000000000000000
#039350:002300000000
#039370:0013
#0393b0:00000023
#0403b0:000000000000000000000013
#041380:005300000000000000000000000000000000000000000000
#0413b0:002300000000
#041320:0013
#041360:00000023
#042320:000000000000000000000013
#043350:005300000000000000000000000000000000000000000000
#043320:002300000000
#0433b0:0013
#043370:00000023
#0443b0:13
#044380:00230000
#044351:00130000
#044321:0023
#0443b0:0013
#044380:00000023
#0443b0:000000000000000000000013
#045380:00230000
#044321:000000000000000000000013
#045351:00230000
#045381:0013
#0453b1:00000023
#046381:000000000000000000000013
#0473b1:005300000000000000000000000000000000000000000000
#047381:002300000000
#047361:0013
#047321:00000023
#048321:000000000000000000000013
#049351:005300000000000000000000000000000000000000000000
#049321:002300000000
#0493b1:0013
#049371:00000023
#0503b1:000000000000000000000013
#051381:005300000000000000000000000000000000000000000000
#0513b1:002300000000
#051321:0013
#051361:00000023
#052321:13
#052351:00230000
#052380:00130000
#0523b0:0023
#052321:0013
#052351:00000023
#052321:000000000000000000000013
#053351:00230000
#0523b0:000000000000000000000013
#053380:00230000
#053350:0013
#053320:00000023
#056370:13
#056390:003300000000000000000000
#0563b0:000033230000000000000000
#056351:00132300
#056331:000000003333000000000000
#056321:0000005300000000
#0563b0:0013
#056390:000000000000003300000000
#056370:000000000000000033230000
#057370:0013
#057390:000000000000003300000000
#0573b0:000000000000000033230000
#057361:00000013
#057341:000000000033
#057321:000000000000000000000033
#058321:23
#0583b0:13
#058390:003300000000000000000000
#058370:000033230000000000000000
#058321:00132300
#058341:000000003333000000000000
#058351:0000005300000000
#058370:0013
#058390:000000000000003300000000
#0583b0:000000000000000033230000
#059320:0013
#059340:000000000000003300000000
#059360:000000000000000033230000
#0593b1:000000000000000000133333
#0603b1:23
#060360:13
#060340:003300000000000000000000
#060320:000033230000000000000000
#060381:00132300
#0603a1:000000003333000000000000
#0603b1:0000005300000000
#060320:0013
#060340:000000000000003300000000
#060360:000000000000000033230000
#061360:0013
#061340:000000000000003300000000
#061320:000000000000000033230000
#061371:00000013
#061391:000000000033
#0613b1:000000000000000000000033
#0623b1:23
#062320:13
#062340:003300000000000000000000
#062360:000033230000000000000000
#0623b1:00132300
#062391:000000003333000000000000
#062381:0000005300000000
#062360:0013
#062340:000000000000003300000000
#062320:000000000000000033230000
#0633b0:0013
#063390:000000000000003300000000
#063370:000000000000000033230000
#064350:145454545454240000000000000000000000000000000000
#064340:005400540054005400540054000000000000000000000000000000000000000000000000000000000000000000000000
#064370:000000000000000000000000145454545454240000000000
#064380:000000000000000000000000000000000000000000000000005400540054005400540054000000000000000000000000
#065340:145454545454240000000000000000000000000000000000
#065330:005400540054005400540054000000000000000000000000000000000000000000000000000000000000000000000000
#065380:000000000000000000000000145454545454240000000000
#065390:000000000000000000000000000000000000000000000000005400540054005400540054000000000000000000000000
#066330:145454545454240000000000000000000000000000000000
#066320:005400540054005400540054000000000000000000000000000000000000000000000000000000000000000000000000
#066390:000000000000000000000000145454545454240000000000
#0663a0:000000000000000000000000000000000000000000000000005400540054005400540054000000000000000000000000
#067320:145454545454240000000000000000000000000000000000
#067330:005400540054005400540054000000000000000000000000000000000000000000000000000000000000000000000000
#0673a0:000000000000000000000000145454540000240000000000
#067390:000000000000000000000000000000000000000000000000005400540054000000000000000000000000000000000000
#0683b0:000000000000000000130023
#068351:000000000000000000000013
#069321:005300000000000000000000000000000000000000000000
#069351:002300000000
#069381:00001323
#0693b1:0000000000530000
#070321:000000000000000000130023
#0703b0:000000000000000000000013
#071380:005300000000000000000000000000000000000000000000
#0713b0:002300000000
#071320:00001323
#071350:0000000000530000
#0723b0:000000000000000000130023
#072321:000000000000000000000013
#073351:005300000000000000000000000000000000000000000000
#073321:002300000000
#073351:00001323
#073321:0000000000530000
#0743b1:13
#074381:005300230000000000000000
#074350:00130000
#074320:000053230000
#0743b1:0013
#074381:000000000000005300230000
#0743b1:000000000000000000000013
#075381:005300000000000000000000
#0753b1:00230000
#074320:000000000000000000000013
#075350:005300000000000000000000
#075320:00230000
#0753b0:00001323
#075380:0000000000530000
#076320:000000000000000000130023
#076381:000000000000000000000013
#0773b1:005300000000000000000000000000000000000000000000
#077381:002300000000
#077351:00001323
#077321:0000000000530000
#0783b1:000000000000000000130023
#078320:000000000000000000000013
#079350:005300000000000000000000000000000000000000000000
#079320:002300000000
#0793b0:00001323
#079380:0000000000530000
#080320:000000000000000000130023
#0803b1:000000000000000000000013
#081381:005300000000000000000000000000000000000000000000
#0813b1:002300000000
#081381:00001323
#0813b1:0000000000530000
#082321:13
#082351:005300230000000000000000
#082380:00130000
#0823b0:000053230000
#082321:0013
#082351:000000000000005300230000
#082321:000000000000000000000013
#083351:005300000000000000000000
#083321:00230000
#0823b0:000000000000000000000013
#083380:005300000000000000000000
#0833b0:00230000
#083320:00001323
#083350:0000000000530000
#084320:13230000
#0843b0:00001323
#085360:13
#085320:00230000
#085370:0013
#0853b0:00000023
#086360:13
#086320:0053230000000000
#086370:0013
#0863b0:0000000000532300
#087320:13230000
#087350:0053000000000000
#0873b0:00001323
#087380:0000000000530000
#095350:00001323
