This file was generated by Ched 2.6.4.0.
#TITLE ""
#ARTIST ""
#DESIGNER ""
#DIFFICULTY 0
#PLAYLEVEL
#SONGID ""
#WAVE ""
#WAVEOFFSET 0
#JACKET ""
#REQUEST "ticks_per_beat 480"
#00002: 4
#BPM01: 180
#00008: 01
#TIL00: ""
#HISPEED 00
#MEASUREHS 00
#01812:2313
#01818:000000130000000013000000
#01815:00000013
#0181b:230000000000000000000013
#01810:41
#03818:00000013
#03812:000000000000000000000013
#0381b:23232300
#03815:23232300
#03918:000013000013000000000000
#03915:00131300
#05412:14140000
#0541a:00001414
#05418:24240000
#05414:00002424
#02412:130000000000000000000013
#0241b:000000000000000000000013
#02418:000000000013000000000000
#00718:000013000013000000000000
#00715:00130000
#00712:0026
#02518:000013000013000013000000
#02515:00232323
#02615:0013
#02618:00130013
#02612:23
#0261b:23
#0281b:000000000000000000000013
#02810:41
#04012:00000013
#04018:000000000000000000000013
#0401b:23232300
#04015:23232300
#04115:000013000013000000000000
#0411b:00131300
#04218:23002313
#04215:000000230000000000000013
#04212:2323
#0421b:00230000
#0431b:001300000000
#04315:00130000
#04318:000000000013000000000000
#04312:0013
#04415:000000000000000000000013
#04518:000000000013000000000000
#04512:0013
#04615:00000013
#0461b:000000000000000000000013
#04612:23232300
#04618:23232300
#04715:000013000013000000000000
#04718:00131300
#0481b:00000013
#04815:000000000000000000000013
#04812:23232300
#04818:23232300
#04918:000013000013000000000000
#04912:00131300
#05015:23002313
#05018:000000230000000000000013
#0501b:2323
#05012:00230000
#05112:001300000000
#05118:00130000
#05115:000000000013000000000000
#0511b:0013
#05218:000000000000000000000013
#05210:41
#05315:000000000013000000000000
#0531b:0013
#05512:1414
#0551a:00140014
#05518:2424
#05514:00240024
#0681b:23000013
#06815:000000000000000000000013
#06816:23
#06819:00230000
#06814:00230000
#06817:0023
#06812:0023
#0681f:21
#06918:001300000000
#06915:00130000
#0691b:000000000013000000000000
#06912:0013
#06910:41
#07015:00000013
#0701b:230000000000000000000013
#07016:23
#07019:00230000
#07014:00230000
#07017:0023
#07012:0023
#07112:001300000000
#0711b:00130000
#07115:000000000013000000000000
#07118:0013
#0721b:00230013
#07212:230000000000230000000013
#07217:2323
#07216:00230000
#0731b:001300000000
#07315:0000130000130000
#07318:000000000013000000000000
#07312:0013
#07518:000000000013000000000000
#07515:0013
#07412:000000000000000000000013
#07612:23000013
#07618:000000000000000000000013
#07617:23
#07614:00230000
#07619:00230000
#07616:0023
#0761b:0023
#07715:001300000000
#07718:00130000
#07712:000000000013000000000000
#0771b:0013
#07818:00000013
#07812:230000000000000000000013
#07817:23
#07814:00230000
#07819:00230000
#07816:0023
#0781b:0023
#0791b:001300000000
#07912:00130000
#07918:000000000013000000000000
#07915:0013
#08012:00230013
#0801b:230000000000230000000013
#08016:2323
#08017:00230000
#08112:001300000000
#08118:0000130000130000
#08115:000000000013000000000000
#0811b:0013
#08315:000000000013000000000000
#08318:0013
#0821b:000000000000000000000013
#08616:14141414
#08612:2424
#0861a:00240024
#08716:14141414
#08712:2424
#0871a:00240024
#03615:1323
#03612:00130023
#0361b:2313
#03618:00230013
#03716:13
#03719:00130000
#03712:0013
#0371b:23
#03714:00230000
#03717:0023
#05812:13
#0581b:0013
#05818:13130000
#05815:0013
#05915:00130000
#0591b:001300000000
#0141b:13
#01415:1313
#01418:00130000
#01518:00130000
#01512:001300000000
#0121b:13
#01215:0013
#01218:00130000
#01212:13
#01318:00130000
#01315:001300000000
#01012:13
#01018:1313
#01015:00130000
#01115:00130000
#0111b:001300000000
#00915:00130000
#00918:001300000000
#00818:0013
#00815:00130000
#00812:23
#0081b:23
#00810:41
#01715:00000013
#02715:00130000
#0271b:13
#02712:13
#02918:000013
#02912:0013
#02915:00000013
#0291b:000000000000000000000013
#03318:0013
#0331b:00000013
#05612:2313
#05615:00130000
#0561b:2313
#0561f:11
#05715:001300000000
#05718:00130000
#0621b:13
#06212:0013
#06215:13130000
#06218:0013
#06318:00130000
#06312:001300000000
#06012:1313
#0601b:1313
#06018:00130000
#06118:001300000000
#06115:00130000
#03015:0013
#03115:000000000013000000000013
#0311b:00130000
#03212:000000000000000000000013
#01912:0013
#01915:00000013
#0201b:13
#02018:00130000
#02215:0013
#02218:000013
#02118:000000000013000013000000
#02115:00001313
#0211b:000000000000000000000013
#0231b:00130000
#02318:0013
#02315:00000013
#03415:00130000
#0341b:00000013
#03412:23
#03418:0023
#03515:00130000
#0351b:00000013
#03512:23
#03518:0023
#06618:1323
#0661b:00130023
#06612:2313
#06615:00230013
#06717:13
#06714:00130000
#0671b:0013
#06712:23
#06719:00230000
#06716:0023
#06418:00130000
#06412:00000013
#0641b:23
#06415:0023
#06518:00130000
#06512:00000013
#0651b:23
#06515:0023
#09518:0013
#08512:24
#08516:00240024
#0851a:0024
#08412:24
#08416:00240024
#0841a:0024
#08410:41
#02052:000000000000000000000013
#0285b:000000000000000000000063
#03955:0063
#03952:00000013
#0415b:0063
#04158:00000013
#04352:0053
#04355:00000013
#04455:000000000000000000000063
#04552:0053
#04555:00000013
#04758:0053
#0475b:00000013
#04952:0053
#04955:00000013
#0515b:0063
#05158:00000013
#05258:000000000000000000000053
#0535b:0063
#05358:00000013
#07352:00005333
#07355:0000000000230000
#06952:0053
#06955:00000013
#07158:0053
#0715b:00000013
#07452:000000000000000000000053
#07555:0063
#07552:00000013
#0815b:00006343
#08158:0000000000230000
#0775b:0063
#07758:00000013
#07955:0063
#07952:00000013
#0825b:000000000000000000000063
#08358:0053
#0835b:00000013
#01755:00000013
#0295b:000000000000000000000063
#03058:000000000000000000000013
#03155:000000000000000000000063
#03252:000000000000000000000053
#0185b:000000000000000000000063
#0215b:000000000000000000000063
#09558:0053
#0955b:00000013
#02452:13
#0003b0:130000000000000033330033
#000390:000033330033330000000000
#0013b0:330000000000000033230000
#001390:000033330033330000000000
#002320:130000000000000033330033
#002340:000033330033330000000000
#003320:330000000000000033230000
#003340:000033330033330000000000
#004390:130000000000000033330033
#0043b0:000033330033330000000000
#005390:330000000000000033230000
#0053b0:000033330033330000000000
#006340:130000000000000033330033
#006320:000033330033330000000000
#007340:23
#007320:00001626
#008350:000000000000000000130023
#0093b0:00001323
#010320:000000000000000000130023
#011380:00001323
#012380:000000000000000000130023
#013320:00001323
#0143b0:000000000000000000130023
#015350:00001323
#016380:165656565656365656565656365656565656365656565656
#016390:005400540054005400540054005400540054005400540054005400540054005400540054005400540054005400540054
#017380:365656565656365656565656260000000000000000000000
#017390:005400540054005400540054005400540054005400540054000000000000000000000000000000000000000000000000
#0183b0:000000000000000000000013
#019380:00230000
#020350:0013
#020320:000000000000000033000023
#0213b0:000000000000000000000013
#022380:00230000
#022350:000000000000000000130023
#024350:000000132300
#027380:00001323
#028350:13
#028320:00230000
#028380:0013
#0283b0:000000000000000000330033
#029380:002300000000
#0293b0:000000000000000000000013
#030380:00230000
#030380:000000000000000013000023
#031380:000000132300
#031350:000000000000000000000013
#032320:00230000
#0323b0:000000132300
#032320:000000000000000000000013
#033350:00230000
#039350:0013
#039320:00000023
#0413b0:0013
#041380:00000023
#043320:0013
#043350:00000023
#0443b0:13000023
#044370:00333300
#044350:000000000000000000000013
#045320:00230000
#045320:0013
#045350:00000023
#047380:0013
#0473b0:00000023
#049320:0013
#049350:00000023
#0513b0:0013
#051380:00000023
#052320:13000023
#052360:00333300
#052380:000000000000000000000013
#0533b0:00230000
#0533b0:0013
#053380:00000023
#056380:000000000000000000130023
#057320:0013
#057350:00000023
#058320:000000000000000000130023
#059380:0013
#0593b0:00000023
#060350:000000000000000000130023
#0613b0:0013
#061380:00000023
#0623b0:000000000000000000130023
#063350:0013
#063320:00000023
#069320:0013
#069350:00000023
#071380:0013
#0713b0:00000023
#073320:00001323
#073350:0000000000530000
#0743b0:1333
#074370:00330023
#074320:000000000000000000000013
#075350:00230000
#075350:0013
#075320:00000023
#0773b0:0013
#077380:00000023
#079350:0013
#079320:00000023
#0813b0:00001323
#081380:0000000000530000
#082320:1333
#082360:00330023
#0823b0:000000000000000000000013
#083380:00230000
#083380:0013
#0833b0:00000023
#088320:130000000033330000000033
#088340:000033330000000033330000
#089320:330000000033330000000000
#089340:000033330000000033230000
#0903b0:130000000033330000000033
#090390:000033330000000033330000
#0913b0:330000000033330000000000
#091390:000033330000000033230000
#092350:130000000033330000000033
#092330:000033330000000033330000
#093350:330000000033330000000000
#093330:000033330000000033230000
#094380:130000000033330000000033
#0943a0:000033330000000033330000
#095380:330000000033330000000000
#0953a0:000033330000000000000000
#0953b0:00000023
