This file was generated by Ched 2.6.4.0.
#TITLE ""
#ARTIST ""
#DESIGNER ""
#DIFFICULTY 0
#PLAYLEVEL
#SONGID ""
#WAVE ""
#WAVEOFFSET 0
#JACKET ""
#REQUEST "ticks_per_beat 480"
#00002: 4
#BPM01: 180
#00008: 01
#TIL00: ""
#HISPEED 00
#MEASUREHS 00
#00012:140000000013000000000000
#00016:000000000000140000000013
#00014:000000140000000013000000
#00018:00000014
#00019:001300000000
#0001a:14
#0011a:14
#00114:000013000000000000140000
#00118:000000140000000000001400
#00112:000000000013000000000000
#00116:000000000000140000000014
#0011b:000013
#00416:00140014
#00412:1414
#0041a:14
#00812:0000001300001300
#0081b:130000000000130000000013
#00816:000000130000000000000013
#00817:000000130000000000000000000000003300000000000000
#00818:003333000000000000000000
#00813:000000003333000000000000
#00819:000000000000003300000000
#00810:41
#00916:000000000013000000000000
#00917:001300000000
#00912:000000130000001300000000
#0091b:000000131300
#00915:000000000000000000130013
#00918:000000000013
#01817:000000131200
#0181b:23130000
#01812:2313
#01816:00130000
#01815:000000000012000000000000
#01819:001200000000
#01814:000000000000000000130013
#01810:41
#04118:00000013
#0411b:000000000000001300000013
#04115:000000001313
#04112:0013
#04119:001300000000
#04117:000000000013000000000000
#0451b:000000130013001300000000
#04512:131300000013
#04517:000000000000000000000013
#04519:00000013
#04514:000013
#04516:0013
#0541b:1313
#05412:00130013
#05416:24242424
#01016:0000001300001300
#01012:000000130000000000000013
#01017:000000130000000000000000130000000000000000001300
#0101b:130033
#01019:000000000000003300000000
#01015:000000003333000000000000
#01018:003333000000000000000000
#0111b:000000000013001300000000
#01112:001300000013
#01117:000000130000000000000013
#01116:0013
#01114:000013
#01119:00000013
#00618:121213141415
#00616:001200000000000000000000
#00615:000000130013000000000000
#00613:000000000000000000150015
#00614:000000000000001400000000
#00512:000000000000000000000014
#00516:140000141414
#0051a:00140014
#02112:000000130000000013130000
#0211b:000000000013130000000013
#02116:001300000000130000000013
#02117:00000013
#00718:160000001600000016000000260000120000000000000000
#00712:001600160016000000260000
#00716:0000000000000012
#0121b:0000001300001300
#01212:130000000000130000000013
#01217:000000130000000000000013
#01216:000000130000000000000000000000003300000000000000
#01214:000000000000003300000000
#0121a:000000003333000000000000
#01215:003333000000000000000000
#01317:000000000013000000000000
#01316:001300000000
#0131b:000000130000001300000000
#01312:000000131300
#01318:000000000000000000130013
#01315:000000000013
#01417:0000001300001300
#0141b:000000130000000000000013
#01416:000000130000000000000000130000000000000000001300
#01412:130033
#01414:000000000000003300000000
#01418:000000003333000000000000
#01415:003333000000000000000000
#01512:000000000013001300000000
#0151b:001300000013
#01516:000000130000000000000013
#01517:0013
#01519:000013
#01514:00000013
#03812:000000000013280000000000
#03819:001300000000
#03818:000013
#03816:280000000000000000000013
#03814:00280000
#04016:000000000013280000000000
#04019:001300001300
#0401b:000000000000000000000013
#04012:28
#04014:00280000
#0421b:000000000013000000000000
#04212:000013280000000000000000
#04218:000000000000000000000013
#04215:000013
#04216:2828
#0431b:000000000013000000130013
#04312:001300130013
#04318:000000000000001300000000
#04315:000013
#03914:000013000000000000130000
#03912:000000000013000000000013
#0391b:0013
#03916:000000000000001300000000
#03919:000013
#03917:000000000013
#0441b:000000000000000000000013
#04412:000013130000000013130000
#04416:130000000013130000000000
#05516:14141414
#0551a:2424
#05512:00240024
#01912:0013
#01916:00000013
#0191b:00001313
#01917:0000000000130013
#02217:001300000000130000000013
#02212:001300000000130000000000
#02216:000000000000000013130000
#0221b:00000013
#02017:00130000
#02012:13130000
#02016:0013001300000000
#0201b:000000000000000000000013
#02419:000000000013000000000000
#02417:00130000
#02412:13130000
#02317:1300001300000013
#0231b:00130013
#02312:0013
#02316:0000000000130000
#02912:000013000000000000130013
#0291b:000000130013000013000000
#02915:00131300
#02918:13000013
#02715:000013130000130000000013
#02718:130000000013000013130000
#02712:00000013
#0271b:00130000
#0261b:000000000000000013130000
#02615:000000000000130000130013
#02618:230000130013000000000000
#02612:000013130000000000000000
#02812:000013000000130000000013
#0281b:130000000013000013000000
#02815:00130013
#02818:00130013
#02810:41
#03717:23002312
#03716:00230000
#03512:00130013
#03516:0023
#0351b:23
#0341b:23130013
#03412:23
#03417:0023
#05717:000013130000000000000000
#05712:00131313
#0571b:000000000013000013000000
#05718:000000000000000000000013
#05912:000013130000000000000000
#05917:00130000
#05915:000000000013000013000013
#05918:00001313
#06717:00000012
#06716:24242400
#06512:00130013
#06515:0023
#0651a:24
#0641b:00130013
#06412:24
#06418:2323
#07016:000000000013280000000000
#07017:000013
#07014:000013280000000000000000
#0701b:000000000000000000000013
#07012:28
#06812:000000000013280013000000
#06816:280000000000000000000013
#06814:000013280000000000000000
#0681f:21
#07215:290000000013290000000000
#07218:001300000000
#0721b:000000000000000000000013
#07212:000000290000000013000000
#07118:000000001313
#07115:000000000000001300000013
#07117:001300000000
#07119:000000000013000000000000
#07112:00001313
#0731b:000000000013130000130000
#07312:000013000000000000130000
#07318:000000000000001300001300
#07315:000000000000000013000013
#07412:130000000013130000000013
#07416:000013130000000013130000
#06918:000000000000001300001300
#0691b:0013
#06912:000013000000000000130013
#06916:000000000013000000000000
#06915:000013
#06910:41
#07518:000000000013000013000000
#07512:1313
#07515:000013000000001300000000
#0751b:00131313
#07517:000000000000000000000013
#07514:000000000013
#08412:182c242c
#08416:0018
#0841a:24
#08410:41
#08512:18002414
#08516:00241824
#0851a:24140000
#0941c:12
#09412:001200000000000000000000
#0941b:001200000000
#09413:00130000
#09419:001300
#09414:000000000013000000000000
#09417:0014
#09415:000000000000001400150015
#09416:000000001415
#09515:16
#09514:001800000000000000000000
#09513:001a00000000
#09512:0000001c1c1c000000140000
#0951a:0014
#09516:000000000000001200000012
#09518:000000001212
#09314:000000000000000000000014
#09318:000000000014
#0931a:14
#09316:00140014
#09312:0014
#08816:000000140000000000140013
#0881a:241300140000
#08817:000000000013000000000000
#08813:000013
#08812:24
#08912:14
#08916:00140014
#0891a:001300140000
#08917:000000000013000000000000
#08913:000013
#08918:000000000014
#08914:000000000000000000000014
#0021b:000000000013000000000000
#00216:0014
#00219:000013
#00214:000013000000000000140000
#00217:000000000000000000000013
#00218:00140000
#0021a:14
#00212:14
#00312:140013
#00319:001300000000
#00314:000000140000000000001400
#0031b:000000000013000000000000
#00316:000000000000140000000014
#00318:00000014
#09012:1414
#0901a:140013
#09016:000000140013000000140000
#09013:001300000000
#09017:000000000000000000000013
#0911a:140013
#09116:000000140013000000140000
#09112:0014
#09113:001300000000
#09114:000000000014
#09118:000000000000000000000014
#0921a:14
#09212:1414
#09216:00140014
#05612:230000130000130000000013
#0561b:1300001300001300
#05616:000000000000000000130000000000003300000000000000
#05617:000033130000000000000000
#0561f:11
#0561a:000000003333000000000000
#05619:003300000000000000000000
#05615:000000003333000000000000
#05614:000000000000003300000000
#05812:130000000033130000000000
#05816:000000000000130000000000000000130000000000001300
#0581b:13130000
#05817:000000130000000000003300000000000000130000000000
#05818:003333000000000000000000
#05819:003300
#05814:003300
#05815:000000000000003333000000
#0631b:000013130000000000000000
#06316:00130000
#06318:000000000013000013000013
#06315:00001313
#08716:000000140000000000140000000024002400000024002400
#08712:24000024
#0871a:00240000
#08616:0014241400142414
#08612:240000000000000000000000000000000000000000000000000000000000000000000000000000000000000000000000001400000000000000000000000000000000000000000000000000000000000000000000000000000000000000000000000000000000000000000000000000000000000000000000000000000000000000000000000000000000000000000000000000000000000000000000000000000000000000000000000000000000000000000000000000000000000000000000
#0861a:240000000000000000000000000000000000000000000000000000000000000000000000000000000000000000000000000000000000000000000000000000000000000000000000000000000000000000000000000000000000000000000000240000000000000000000000000000000000000000000000000000000000000000000000000000000000000000000000001400000000000000000000000000000000000000000000000000000000000000000000000000000000000000000000
#06116:000013130000000000000000
#0611b:00131313
#06112:000000000013000013000000
#06115:000000000000000000000013
#0601b:130000130000130000000013
#06012:1300001300001300
#06017:000000000000000000130000000000003300000000000000
#06016:000033130000000000000000
#06013:000000003333000000000000
#06014:003300000000000000000000
#06018:000000003333000000000000
#06019:000000000000003300000000
#0621b:130000000033130000000000
#06217:000000000000130000000000000000130000000000001300
#06212:13130000
#06216:000000130000000000003300000000000000130000000000
#06215:003333000000000000000000
#06214:003300
#06219:003300
#06218:000000000000003333000000
#03012:000013130000130000000013
#03016:0000000000130000
#03017:0013000000000000
#0301b:130000000013000013130000
#03115:001300000000
#03112:000000000000130000000000000000130000000000001300
#0311b:000000130000000000001300000000000000130000000000
#03117:13
#03118:000013
#03116:0013
#0321b:000000000013000013130000
#03212:000013130000000000000013
#0331b:000000000013000000000000
#03316:000013130000000000000000
#03317:000000000000000013130000
#04915:00000013
#04912:000000000000001300000013
#04918:000000001313
#0491b:0013
#04914:001300000000
#04916:000000000013000000000000
#05312:000000130013000000000000
#0531b:131300000000
#0461b:000000000013000000000000
#04614:000013280000000000000000
#04615:000013
#04617:000000000000000000000013
#04612:28
#04616:0028
#04817:000000000013000000000000
#04814:000013280000000013000000
#04812:000000000000280000000013
#04816:28
#05012:280000000013280000000000
#0501b:001300000000
#05015:000000000000000000000013
#05018:000013
#05016:00280000
#05112:000000000013000000130013
#0511b:001300130013
#05115:000000000000001300000000
#05118:000013
#04719:000013000000000000130000
#0471b:000000000013000000000013
#04712:0013
#04717:000000000000001300000000
#04714:000013
#04716:000000000013
#05212:000000000000000000000013
#0521b:000013130000000013130000
#05217:130000000013130000000000
#05210:41
#07817:000000000013000000000000
#07816:280013
#07819:001300000000
#07812:000000000000280000000013
#07814:00280000
#0761b:000000000013000013000000
#07617:000000000000000000000013
#07619:001300000000
#07614:00280000
#07616:0028
#07612:28
#08018:000000000013000000000000
#08015:000013290000000000000000
#08012:290000000000290000000013
#0801b:000013
#07915:000000001313
#07918:000000000000001300000013
#07916:001300000000
#07914:000000000013000000000000
#0791b:00001313
#08112:000000000013130000130000
#0811b:000013000000000000130000
#08115:000000000000001300001300
#08118:000000000000000013000013
#0821b:130000000013130000000013
#08217:000013130000000013130000
#07715:000000000000001300001300
#07712:0013
#0771b:000013000000000000130013
#07717:000000000013000000000000
#07718:000013
#08315:000000000013000000000000
#0831b:13
#08318:001300000000
#08312:00130000
#02515:00230023
#02518:2323
#03612:23000023
#0361b:00232300
#06612:24000023
#0661b:00230000
#0661a:0024
#00856:00630000
#00852:3600002300000000
#0085b:630000000000630000000013
#00857:0023000000000000
#04158:00000013
#00758:1600000066220000
#00752:00160056
#00756:0000000000000022
#0105b:63
#01057:0023000053000000
#01052:000000530000000000000013
#01056:0000002300000000
#01252:530000000000530000000013
#01257:00530000
#0125b:0000002300000000
#01256:0023000000000000
#0145b:000000630000000000000013
#01452:53
#01456:0023000063000000
#01457:0000002300000000
#01757:00000012
#0435b:00000013
#04457:00000013
#05456:1414
#0555a:4444
#05552:00340034
#0185b:13
#01852:13
#01957:0000120000230023
#0195b:00006363
#0225b:00430000
#02256:00430000
#02252:002300000000000000000000
#02257:002300000000000000000000
#02452:33
#0245b:43
#02052:53530000
#02056:000000230000000000230000000000000000000000003300
#0205b:000000000000000000000063
#02156:002300000000000000000063
#0215b:000000000000000000000063
#0235b:00630063
#02357:0000002300000023
#02352:0053
#02356:0000000000230000
#02752:00000013
#0275b:00130000
#02655:00000013
#02658:00130000
#0295b:00130000
#02952:00000013
#02855:00000013
#02858:00130000
#03757:00000012
#06757:00000012
#06952:00000013
#07056:0048
#07052:48
#07054:00480000
#07252:00390000
#07255:4949
#0745b:00000013
#07152:00000013
#07352:00000013
#06854:00480000
#06852:0048
#06856:48
#0845a:14
#08452:0014
#0855a:14
#08556:00140014
#08552:0014
#0865a:440000000000000000000000000000000000000000000000000000000000000000000000000000000000000000000000000000000000000000000000000000000000000000000000000000000000000000000000000000000000000000000000640000000000000000000000000000000000000000000000000000000000000000000000000000000000000000000000006400000000000000000000000000000000000000000000000000000000000000000000000000000000000000000000
#08656:0024442400243424
#08652:540000000000000000000000000000000000000000000000000000000000000000000000000000000000000000000000005400000000000000000000000000000000000000000000000000000000000000000000000000000000000000000000340000000000000000000000000000000000000000000000000000000000000000000000000000000000000000000000000000000000000000000000000000000000000000000000000000000000000000000000000000000000000000000000
#08752:54340034
#0875a:44644400
#08756:0024002400000000
#0955a:0014
#09552:00000014
#05652:000000530000530000000013
#0565b:6300002300006300
#05656:0000002300000000
#05657:00530000
#05856:000000000000630000000000000000230000000000001300
#05852:0053
#0585b:63630000
#05857:0023000000005300
#0605b:000000630000630000000013
#06052:5300002300005300
#06057:0000002300000000
#06056:00630000
#06257:000000000000530000000000000000230000000000001300
#0625b:0063
#06252:53530000
#06256:0023000000006300
#03954:00000013
#03056:0000000000230000
#03052:00005333
#03057:0023000000000000
#0305b:63430000
#0315b:0023000000000000
#03157:53330000
#03152:0000000000230000
#03156:00006343
#03257:00430000
#03256:00000033
#0335b:00430000
#03352:00000033
#04955:00000013
#05152:00000013
#04759:00000013
#05256:00000013
#0775b:00000013
#0795b:00000013
#0815b:00000013
#07852:0038
#07856:38
#07854:00380000
#08052:3939
#08055:00490000
#07654:00380000
#07656:0038
#07652:38
#08252:00000013
#05356:00000044
#08352:00000034
#0043b0:000013230000000000000000
#004370:000000000013230000000000
#0043b0:000000000000000013230000
#004320:000000000000000000000013
#005320:23
#005360:000013230000000000000000
#005320:000000000013230000000000
#007380:0000000016522600
#007321:00000016
#007361:0000000000000052
#008321:26
#0083b0:13230000
#008380:003333000000000000000000
#008370:0053000000000000
#008361:00132300
#008331:000000003333000000000000
#008321:0000005300000000
#0083b0:0013
#008390:000000000000003300000000
#008370:000000000000000033230000
#0103b0:13230000
#010380:003333000000000000000000
#010370:0053000000000000
#010321:00132300
#010351:000000003333000000000000
#010361:0000005300000000
#010370:0013
#010390:000000000000003300000000
#0103b0:000000000000000033230000
#012320:13230000
#012350:003333000000000000000000
#012360:0053000000000000
#012371:00132300
#0123a1:000000003333000000000000
#0123b1:0000005300000000
#012320:0013
#012340:000000000000003300000000
#012360:000000000000000033230000
#014320:13230000
#014350:003333000000000000000000
#014360:0053000000000000
#0143b1:00132300
#014381:000000003333000000000000
#014371:0000005300000000
#014360:0013
#014340:000000000000003300000000
#014320:000000000000000033230000
#0163b0:135300000000000000000000000000000000000000000000
#0163a0:005300005300000000000000000000000000000000000000000000000000000000000000000000000000000000000000
#016390:00535300000000000000000000000000
#016380:000000000053000053000000000000000000000000000000000000000000000000000000000000000000000000000000
#016370:000000000000005300005300000000000000000000000000000000000000000000000000000000000000000000000000
#016360:00000053230000000000000000000000
#016350:000000000000000000000053000000000000000000000000000000000000000000000000000000000000000000000000
#016321:000000000000135300000000000000000000000000000000
#016331:000000000000000000000000005300005300000000000000000000000000000000000000000000000000000000000000
#016341:00000000005353000000000000000000
#016351:000000000000000000000000000000000053000053000000000000000000000000000000000000000000000000000000
#016361:000000000000000000000000000000000000005300005300000000000000000000000000000000000000000000000000
#016371:00000000000000532300000000000000
#016381:000000000000000000000000000000000000000000000053000000000000000000000000000000000000000000000000
#0163b0:000000000000000000000000135300000000000000000000
#0163a0:000000000000000000000000000000000000000000000000005300005300000000000000000000000000000000000000
#016390:00000000000000000053530000000000
#016380:000000000000000000000000000000000000000000000000000000000053000053000000000000000000000000000000
#016370:000000000000000000000000000000000000000000000000000000000000005300005300000000000000000000000000
#016360:00000000000000000000005323000000
#016350:000000000000000000000000000000000000000000000000000000000000000000000053000000000000000000000000
#016321:000000000000000000000000000000000000135300000000
#016331:000000000000000000000000000000000000000000000000000000000000000000000000005300005300000000000000
#016341:00000000000000000000000000535300
#016351:000000000000000000000000000000000000000000000000000000000000000000000000000000000053000053000000
#016361:000000000000000000000000000000000000000000000000000000000000000000000000000000000000005300005300
#016371:00000000000000000000000000000053
#016381:000000000000000000000000000000000000000000000000000000000000000000000000000000000000000000000053
#017371:23
#0173b0:135300000000000000000000000000000000000000000000
#0173a0:005300005300000000000000000000000000000000000000000000000000000000000000000000000000000000000000
#017390:00535300000000000000000000000000
#017380:000000000053000053000000000000000000000000000000000000000000000000000000000000000000000000000000
#017370:000000000000005300005300000000000000000000000000000000000000000000000000000000000000000000000000
#017360:00000053230000000000000000000000
#017350:000000000000000000000053000000000000000000000000000000000000000000000000000000000000000000000000
#017321:000000000000135300000000000000000000000000000000
#017331:000000000000000000000000005300005300000000000000000000000000000000000000000000000000000000000000
#017341:00000000005353000000000000000000
#017351:000000000000000000000000000000000053000053000000000000000000000000000000000000000000000000000000
#017361:000000000000000000000000000000000000005300005300000000000000000000000000000000000000000000000000
#017371:00000000000000532300000000000000
#017381:000000000000000000000000000000000000000000000053000000000000000000000000000000000000000000000000
#0173b0:0013
#017390:000000000000000000000000000000000000000000000000005300005300000000000000000000000000000000000000
#0173a0:000000000000000000000000005300000000000000000000
#017380:00000000000000000053000000000000
#017370:000000000000000000000000000000000000000000000000000000000052000000000000220000000000000000000000
#018390:000000000000000000130023
#019370:12220000
#0193b0:00001333
#019370:0000000000530053
#0203b0:23
#020321:13332300
#020361:0053005300000000
#0203b0:0013
#020370:000000000000005323000000
#020321:000013
#020361:000000000000000000530023
#0203b0:000000000000000000000013
#021360:005300000000000000000000
#0213b0:00230000
#021360:000000000000000000000013
#022320:005300000000000000000000
#022360:00230000
#0213b1:000000000000000000000013
#022371:005300000000000000000000
#0223b1:00230000
#023321:13
#023361:00230000
#0233b0:00132300
#023370:0000005300000000
#023321:00001323
#023361:0000000000530000
#0233b0:00000013
#023370:0000000000000053
#0243b0:23
#024360:0013
#024320:000023
#0243b1:000000000000000013000023
#024350:000000000000000000000013
#025350:23
#025380:000013230000000000000000
#025320:000000000013230000000000
#0253b0:000000000000000013230000
#025350:000000000000000000000013
#026350:23
#0303b0:13230000
#030370:0053000000000000
#030320:00001323
#030360:0000000000530000
#031370:13230000
#0313b0:0053000000000000
#031360:00001323
#031320:0000000000530000
#0323b0:13
#032370:005300230000000000000000
#032320:0013
#032360:000000000000005300230000
#033370:13
#0333b0:005300230000000000000000
#033360:0013
#033320:000000000000005300230000
#034320:13000000000000000000000000000000000000000000005300000000000000003300000000000000000000000000000000000000000000530000000000000000
#034340:00530000530000000000000000000000000000530000530000000000000000000053000053000000000000000000000000000053000053000000000000000000
#034330:00005300000000000000000000000000000000000053000000000000000000000000530000000000000000000000000000000000005300000000000000000000
#034350:00000053000053000000000000000000005300005300000000000000000000000000005300005300000000000000000000530000530000000000000000000000
#034360:00000000005300000000000000000000000053000000000000000000000000000000000000530000000000000000000000005300000000000000000000000000
#034370:00000000000000530000000000000000330000000000000000000000000000000000000000000053000000000000000033000000000000000000000000000000
#035320:23
#0353b1:13000000000000000000000000000000000000000000005300000000000000003300000000000000000000000000000000000000000000530000000000000000
#035391:00530000530000000000000000000000000000530000530000000000000000000053000053000000000000000000000000000053000053000000000000000000
#0353a1:00005300000000000000000000000000000000000053000000000000000000000000530000000000000000000000000000000000005300000000000000000000
#035381:00000053000053000000000000000000005300005300000000000000000000000000005300005300000000000000000000530000530000000000000000000000
#035371:00000000005300000000000000000000000053000000000000000000000000000000000000530000000000000000000000005300000000000000000000000000
#035361:00000000000000530000000000000000330000000000000000000000000000000000000000000053000000000000000033000000000000000000000000000000
#0363b1:23
#036320:13000000000000000000000000000000000000000000005300000000000000002300000000000000000000000000000000000000000000000000000000000000
#036340:00530000530000000000000000000000000000530000530000000000000000000000000000000000000000000000000000000000000000000000000000000000
#036330:00005300000000000000000000000000000000000053000000000000000000000000000000000000000000000000000000000000000000000000000000000000
#036350:00000053000053000000000000000000005300005300000000000000000000000000000000000000000000000000000000000000000000000000000000000000
#036360:00000000005300000000000000000000000053000000000000000000000000000000000000000000000000000000000000000000000000000000000000000000
#036370:00000000000000530000000000000000330000000000000000000000000000000000000000000000000000000000000000000000000000000000000000000000
#0363b1:00000000000000000000000000000000000000000000000000000000000000001300000000000000000000000000000000000000000000530000000000000000
#036391:00000000000000000000000000000000000000000000000000000000000000000053000053000000000000000000000000000053000053000000000000000000
#0363a1:00000000000000000000000000000000000000000000000000000000000000000000530000000000000000000000000000000000005300000000000000000000
#036381:00000000000000000000000000000000000000000000000000000000000000000000005300005300000000000000000000530000530000000000000000000000
#036371:00000000000000000000000000000000000000000000000000000000000000000000000000530000000000000000000000005300000000000000000000000000
#036361:00000000000000000000000000000000000000000000000000000000000000000000000000000053000000000000000033000000000000000000000000000000
#0373b1:23
#037370:13
#037350:00530000530000000000000000000000000000000000000000000000000000000000000000000000000000000000000000000000000000000000000000000000
#037360:0053000000000000000000000000000000000000000000000000000000000000
#037340:00000053000053000000000000000000000000000000000000000000000000000000000000000000000000000000000000000000000000000000000000000000
#037330:00000000005300000000000000000000000000000000000000000000000000000000000000000000000000000000000000000000000000000000000000000000
#037320:00000000000000530000000000000000230000000000000000000000000000000000000000000000000000000000000000000000000000000000000000000000
#037361:00130000
#037381:00000000000000000000000000000000005300005300000000000000000000000000000000000000000000000000000000000000000000000000000000000000
#037371:0000000000000000005300000000000000000000000000000000000000000000
#037391:00000000000000000000000000000000000000530000530000000000000000000000000000000000000000000000000000000000000000000000000000000000
#0373a1:00000000000000000000000000000000000000000053000000000000000000000000000000000000000000000000000000000000000000000000000000000000
#0373b1:00000000000000000000000000000000000000000000005300000000000000002300000000000000000000000000000000000000000000000000000000000000
#037370:0013
#037350:00000000000000000000000000000000000000000000000000000000000000000053000053000000000000000000000000000000000000000000000000000000
#037360:0000000000000000000000000000000000530000000000000000000000000000
#037340:00000000000000000000000000000000000000000000000000000000000000000000005300005300000000000000000000000000000000000000000000000000
#037330:00000000000000000000000000000000000000000000000000000000000000000000000000530000000000000000000000000000000000000000000000000000
#037320:00000000000000000000000000000000000000000000000000000000000000000000000000000053000000000000000023000000000000000000000000000000
#0383b0:000000000000000000130023
#039390:132300000000
#039370:000000130023000000000000
#040360:000000000000000000130023
#041340:132300000000
#041320:000000130023000000000000
#042320:000000000000000000130023
#0433b0:132300000000
#043350:000000130023000000000000
#0443b0:130053330000
#044370:005300330000005300230000
#045370:132300000000
#045360:000000130023000000000000
#046320:000000000000000000130023
#047340:132300000000
#047360:000000130023000000000000
#048370:000000000000000000130023
#049390:132300000000
#0493b0:000000130023000000000000
#0503b0:000000000000000000130023
#051320:132300000000
#051380:000000130023000000000000
#052320:130053330000
#052360:005300330000005300230000
#053360:132300000000
#053370:000000130023000000000000
#0533a0:0014
#053360:000000000000005400240000
#053321:00000014
#053361:000000000054
#054361:24
#0563b1:1300005300000000
#056391:003300000000000000000000
#056371:000033330000230000000000
#0563a1:000000003333000000000000
#056320:00133300
#056350:000000003333000000000000
#056360:000000000000000000530000000000003300230000000000
#056340:000000000000003300000000
#0563b1:00000013
#056371:000000000000000000000023
#057381:000000000000132300000000
#057350:000000000000001323000000
#057380:000000000000000000132300
#057351:000000000000000000001323
#0583b1:13330000
#058381:003333000000000000000000
#058371:000000530000000000003300230000000000000000000000
#058391:003300
#058360:0000130000530000
#058340:003300
#058320:000000000033330000230000
#058350:000000000000003333000000
#058371:00000013
#0583b1:000000000000000000000023
#059321:000000000000132300000000
#0593b0:000000000000001323000000
#059320:000000000000000000132300
#0593b1:000000000000000000001323
#060321:1300005300000000
#060341:003300000000000000000000
#060361:000033330000230000000000
#060331:000000003333000000000000
#0603b0:00133300
#060380:000000003333000000000000
#060370:000000000000000000530000000000003300230000000000
#060390:000000000000003300000000
#060321:00000013
#060361:000000000000000000000023
#061351:000000000000132300000000
#061380:000000000000001323000000
#061350:000000000000000000132300
#061381:000000000000000000001323
#062321:13330000
#062351:003333000000000000000000
#062361:000000530000000000003300230000000000000000000000
#062341:003300
#062370:0000130000530000
#062390:003300
#0623b0:000000000033330000230000
#062380:000000000000003333000000
#062361:00000013
#062321:000000000000000000000023
#0633b1:000000000000132300000000
#063320:000000000000001323000000
#0633b0:000000000000000000132300
#063321:000000000000000000001323
#064321:14000000000000000000000000000000000000000000005400000000000000003400000000000000000000000000000000000000000000540000000000000000
#064341:00540000540000000000000000000000000000540000540000000000000000000054000054000000000000000000000000000054000054000000000000000000
#064331:00005400000000000000000000000000000000000054000000000000000000000000540000000000000000000000000000000000005400000000000000000000
#064351:00000054000054000000000000000000005400005400000000000000000000000000005400005400000000000000000000540000540000000000000000000000
#064361:00000000005400000000000000000000000054000000000000000000000000000000000000540000000000000000000000005400000000000000000000000000
#064371:00000000000000540000000000000000340000000000000000000000000000000000000000000054000000000000000034000000000000000000000000000000
#065321:24
#0653a0:14000000000000000000000000000000000000000000005400000000000000003400000000000000000000000000000000000000000000540000000000000000
#065380:00540000540000000000000000000000000000540000540000000000000000000054000054000000000000000000000000000054000054000000000000000000
#065390:00005400000000000000000000000000000000000054000000000000000000000000540000000000000000000000000000000000005400000000000000000000
#065370:00000054000054000000000000000000005400005400000000000000000000000000005400005400000000000000000000540000540000000000000000000000
#065360:00000000005400000000000000000000000054000000000000000000000000000000000000540000000000000000000000005400000000000000000000000000
#065350:00000000000000540000000000000000340000000000000000000000000000000000000000000054000000000000000034000000000000000000000000000000
#0663a0:24
#066321:14000000000000000000000000000000000000000000005400000000000000002400000000000000000000000000000000000000000000000000000000000000
#066341:00540000540000000000000000000000000000540000540000000000000000000000000000000000000000000000000000000000000000000000000000000000
#066331:00005400000000000000000000000000000000000054000000000000000000000000000000000000000000000000000000000000000000000000000000000000
#066351:00000054000054000000000000000000005400005400000000000000000000000000000000000000000000000000000000000000000000000000000000000000
#066361:00000000005400000000000000000000000054000000000000000000000000000000000000000000000000000000000000000000000000000000000000000000
#066371:00000000000000540000000000000000340000000000000000000000000000000000000000000000000000000000000000000000000000000000000000000000
#0663a0:00000000000000000000000000000000000000000000000000000000000000001400000000000000000000000000000000000000000000540000000000000000
#066380:00000000000000000000000000000000000000000000000000000000000000000054000054000000000000000000000000000054000054000000000000000000
#066390:00000000000000000000000000000000000000000000000000000000000000000000540000000000000000000000000000000000005400000000000000000000
#066370:00000000000000000000000000000000000000000000000000000000000000000000005400005400000000000000000000540000540000000000000000000000
#066360:00000000000000000000000000000000000000000000000000000000000000000000000000540000000000000000000000005400000000000000000000000000
#066350:00000000000000000000000000000000000000000000000000000000000000000000000000000054000000000000000034000000000000000000000000000000
#0673a0:24
#067361:14
#067341:00540000540000000000000000000000000000000000000000000000000000000000000000000000000000000000000000000000000000000000000000000000
#067351:0054000000000000000000000000000000000000000000000000000000000000
#067331:00000054000000000000000000000000000000000000000000000000000000000000000000000000000000000000000000000000000000000000000000000000
#067321:00000000005400000000000000000000240000000000000000000000000000000000000000000000000000000000000000000000000000000000000000000000
#067360:00140000
#067380:00000000000000000000000000000000005400005400000000000000000000000000000000000000000000000000000000000000000000000000000000000000
#067370:0000000000000000005400000000000000000000000000000000000000000000
#067390:00000000000000000000000000000000000000540000000000000000000000000000000000000000000000000000000000000000000000000000000000000000
#0673a0:00000000000000000000000000000000000000000054000000000000000000002400000000000000000000000000000000000000000000000000000000000000
#067361:0014
#067341:00000000000000000000000000000000000000000000000000000000000000000054000054000000000000000000000000000000000000000000000000000000
#067351:0000000000000000000000000000000000540000000000000000000000000000
#067331:00000000000000000000000000000000000000000000000000000000000000000000005400000000000000000000000000000000000000000000000000000000
#067321:00000000000000000000000000000000000000000000000000000000000000000000000000540000000000000000000024000000000000000000000000000000
#068371:00000013
#0683b1:000000000000000000000023
#0693b1:13
#069371:002300000000
#069371:00130000
#0693b1:000000000023000000000000
#070321:00000013
#070361:000000000000000000000023
#071361:13
#071321:002300000000
#071321:00130000
#071361:000000000023000000000000
#072321:00000013
#072361:000000000000000000000023
#0733b1:13
#073371:002300000000
#073321:00130000
#073361:000000000023000000000000
#074371:130053330000
#0743b1:005300330000005300230000
#0753b1:13
#075381:005323000000000000000000
#075321:00130000
#075351:000000005323000000000000
#076361:00000013
#076321:000000000000000000000023
#077321:13
#077361:002300000000
#077361:00130000
#077321:000000000023000000000000
#0783b1:00000013
#078371:000000000000000000000023
#079371:13
#0793b1:002300000000
#0793b1:00130000
#079371:000000000023000000000000
#0803b1:00000013
#080371:000000000000000000000023
#081321:13
#081361:002300000000
#0813b1:00130000
#081371:000000000023000000000000
#082361:130053330000
#082321:005300330000005300230000
#083321:13
#083351:005323000000000000000000
#0833b1:00130000
#083381:000000005323000000000000
#083361:0014
#083321:000000000000005400240000
#083360:00000014
#0833a0:000000000054
#0843a0:24
#086320:140000000000000000000000000000000000000000000000000000000000000000000000000000000000000000000054005400000000000000000000000000000000000000000000000000000000000000000000000000000000000000000000240000000000000000000000000000000000000000000000000000000000000000000000000000000000000000000000000000000000000000000000000000000000000000000000000000000000000000000000000000000000000000000000
#086360:0054005400000000
#0863a1:000000000000000000000000000000000000000000000000000000000000000000000000000000000000000000000000000000000000000000000000000000000000000000000000000000000000000000000000000000000000000000000000140000000000000000000000000000000000000000000000000000000000000000000000000000000000000000000054005400000000000000000000000000000000000000000000000000000000000000000000000000000000000000000000
#086361:0000000000540054
#0873a1:24
#087320:14240000
#087360:0054000000000000
#0873a1:00142400
#087361:0000005400000000
#0923a1:000014240000000000000000
#092361:000000000014240000000000
#092321:000000000000000014240000
#092361:000000000000000000000014
#093361:24
#0933a1:000014240000000000000000
#093361:000000000014240000000000
#093321:000000000000000014240000
