This file was generated by Ched 2.6.4.0.
#TITLE ""
#ARTIST ""
#DESIGNER ""
#DIFFICULTY 0
#PLAYLEVEL
#SONGID ""
#WAVE ""
#WAVEOFFSET 0
#JACKET ""
#REQUEST "ticks_per_beat 480"
#00002: 4
#BPM01: 180
#00008: 01
#TIL00: ""
#HISPEED 00
#MEASUREHS 00
#03814:00000014
#0381a:2424
#03812:00240000
#03918:14
#03914:00140000
#04018:00000014
#04012:2424
#0401a:00240000
#04114:14
#04118:00140000
#0421a:24000014
#04216:00240000
#04212:0024
#04314:14
#04318:00140000
#04418:1414
#04414:00140014
#0451a:1414
#04512:00140014
#04612:00000014
#04618:2424
#04614:00240000
#04718:14
#04712:00140000
#0481a:00000014
#04814:2424
#04818:00240000
#04914:14
#0491a:00140000
#05018:00000014
#0501a:24
#05016:00240000
#05012:0024
#05112:14
#0511a:00140000
#0521a:1414
#05212:00140014
#05210:41
#05318:1414
#05314:00140014
#0541a:24140000
#05412:00002414
#01812:14
#01818:0014
#01810:41
#01914:14
#0191a:0014
#02514:1414
#02518:00140014
#03714:1414
#03718:00140000
#03412:14
#0341a:00140000
#03413:0014
#03419:00000014
#03514:14
#03518:00140000
#03513:0014
#03519:00000014
#03612:14
#0361a:00140000
#03613:0014
#03619:00000014
#02112:14
#0211a:0014
#0081a:1414
#00814:00140014
#00810:41
#00918:1414
#00912:00140000
#01012:1414
#01018:00140014
#01114:1414
#0111a:00140000
#01218:1414
#01212:00140014
#0131a:1414
#01314:00140000
#01414:1414
#0141a:00140014
#01512:1414
#01518:00140000
#02014:14
#02018:0014
#0561a:14
#05614:00140000
#05618:0014
#05612:00000014
#0561f:11
#05718:14
#05714:00140000
#0571a:0014
#06018:14
#06012:00140000
#0601a:0014
#06014:00000014
#0611a:14
#06112:00140000
#06118:0014
#05812:14
#05818:00140000
#05814:0014
#0581a:00000014
#05914:14
#05918:00140000
#05912:0014
#06214:14
#0621a:00140000
#06212:0014
#06218:00000014
#06312:14
#0631a:00140000
#06314:0014
#02214:14
#02218:0014
#0241a:0014
#02414:14
#02312:14
#02318:0014
#02612:14
#0261a:0014
#02714:14
#02718:0014
#02914:14
#0291a:0014
#02812:14
#0281a:0014
#02810:41
#03012:14
#03018:0014
#03114:14
#0311a:0014
#03212:14
#03214:00140000
#0331a:14
#03318:00140000
#0671a:1414
#06712:00140000
#06418:14
#06414:00140000
#06419:0014
#06413:00000014
#0651a:14
#06512:00140000
#06519:0014
#06513:00000014
#06618:14
#06614:00140000
#06619:0014
#06613:00000014
#07213:00000014
#07212:24
#07216:00240000
#0721a:0024
#07315:14
#07317:00140000
#07414:1414
#07418:00140014
#07512:14
#07516:00140014
#0751a:0014
#0821a:00140014
#08212:1414
#08312:14
#08316:00140014
#0831a:0014
#08412:24140000
#0841a:00002414
#08410:41
#08012:24000014
#08016:00240000
#0801a:0024
#08116:14
#0811a:00140000
#0761a:00000014
#07612:24
#07618:00240000
#07614:0024
#07712:14
#07718:00140000
#07014:00240014
#07018:24
#0701a:0024
#07118:14
#07112:00140000
#06818:00240014
#06814:24
#06812:0024
#0681f:21
#06914:14
#0691a:00140000
#06910:41
#07812:00000014
#0781a:24
#07814:00240000
#07818:0024
#0791a:14
#07914:00140000
#08514:24140000
#08518:00002414
#08616:00140014
#08612:24
#0861a:0024
#08716:00140014
#08712:24
#0871a:0024
#09214:14
#09212:00140000
#09318:14
#0931a:00140000
#09412:14
#09414:00140000
#0951a:14
#09518:00140000
#08812:14
#0891a:14
#09014:14
#09118:14
#05518:24240000
#05514:00002424
#03754:0014
#03252:54
#03254:00240000
#0335a:64
#03358:00240000
#0675a:0014
#09254:64
#09252:00240000
#09358:54
#0935a:00240000
#09452:54
#09454:00240000
#0955a:64000014
#09558:00240000
#08852:54
#0895a:64
#09054:64
#09158:54
#0003a0:1424
#001320:1424
#002380:1424
#003340:1424
#004380:1424
#005340:1424
#0063a0:1424
#007320:1424
#0163a0:14343434
#0173a0:34343424
#032320:1424
#032340:00540000
#0333a0:1424
#033380:00540000
#039380:00001424
#041340:00001424
#043320:00001424
#047380:00001424
#049340:00001424
#051340:00001424
#069320:0014
#069340:00000024
#0713a0:0014
#071380:00000024
#073390:00001424
#077340:0014
#077320:00000024
#079380:0014
#0793a0:00000024
#081360:00001424
#088320:14
#088340:0024
#0893a0:14
#089380:0024
#090340:14
#090320:0024
#091380:14
#0913a0:0024
#092340:1424
#092320:00540000
#093380:1424
#0933a0:00540000
#094320:1424
#094340:00540000
#0953a0:14003424
#095380:00540000
