This file was generated by Ched 2.6.4.0.
#TITLE ""
#ARTIST ""
#DESIGNER ""
#DIFFICULTY 0
#PLAYLEVEL
#SONGID ""
#WAVE ""
#WAVEOFFSET 0
#JACKET ""
#REQUEST "ticks_per_beat 480"
#00002: 4
#BPM01: 75
#00008: 01
#TIL00: ""
#HISPEED 00
#MEASUREHS 00
#00118:14
#00114:0014
#00314:14
#00318:0014
#0051a:14
#00514:0014
#00510:41
#00614:0014
#0061a:14
#00719:14
#00712:0014
#00818:14
#00812:0014
#01014:14
#0101a:0014
#01214:0014
#01218:14
#0131a:14
#01312:0014
#0131f:11
#03512:14
#0351a:0014
#03614:14
#00218:14
#00414:14
#01718:26160000
#01712:00001616
#0171f:21
#01710:0041
#01818:1616
#01812:00160000
#01912:26160000
#01918:00001616
#02012:1616
#02018:00160000
#02118:26160000
#02112:00001616
#02218:1616
#02212:00160000
#02612:00160000
#02618:16
#03318:1616
#03312:00160016
#02512:00000016
#02518:0026
#02712:1626
#02718:00160016
#02710:0041
#02818:00160000
#02812:16
#02918:1626
#02912:00160016
#03012:00160000
#03018:16
#03112:16
#03118:00160000
#03110:0041
#01512:14
#0151a:0014
#01614:14
#02312:16
#02310:41
#02418:00160000
#02412:0016
#01418:24
#03418:26
#00910:41
#009380:1424
#011340:1424
#014380:1434343400002400
#023380:00162600
#023320:00000016
#024320:26
#026380:00001626
#028320:00001626
#030380:00001626
#031320:00001626
#032380:16260000
#032320:00001626
#034380:1636363600002600
#036380:0014
#038380:24
