This file was generated by Ched 2.6.4.0.
#TITLE ""
#ARTIST ""
#DESIGNER ""
#DIFFICULTY 0
#PLAYLEVEL
#SONGID ""
#WAVE ""
#WAVEOFFSET 0
#JACKET ""
#REQUEST "ticks_per_beat 480"
#00002: 4
#BPM01: 75
#00008: 01
#TIL00: ""
#HISPEED 00
#MEASUREHS 00
#03612:12
#03616:00120000
#0321a:0000001400000014
#03216:00001414
#03212:2400001400140000
#0231b:0000000000000013
#02317:00000013
#02312:14001413
#02316:2414241424000013
#0231a:00140000
#02310:41
#01512:0000000000140000
#0151a:1400001400000000
#01516:0014
#01412:000000140000000000230000000013000000000014000000
#0141a:00140014
#01414:14
#01418:0023001400000000
#01415:000000000000230000000000000000000000000000000014
#01417:0000000000130014
#01416:000000000000000000000000000000000013000000000000
#0141b:23
#0121b:00001313
#01217:0000001300000000
#01218:0000000000130000
#01219:0000000000000013
#01214:00220000
#01215:0022
#01216:00000022
#0131b:13
#0131f:11
#01317:2222
#01116:0000000000000013
#0111b:00001313
#01117:0000000000130000
#01112:0013000000000000
#01115:13
#0101b:0013000000000000
#01015:001300
#01018:00130000
#01012:00130000
#0161b:13
#01615:0022000012000000
#01617:00000000002200000000000000000000
#01619:0022
#02516:1300000000000014
#02519:001300000000000000000000
#02512:001300140000
#0251a:00000014
#0251b:23
#02514:002300000000000000000000
#02517:002300000000
#02518:0026
#00917:0000000000000013
#00912:00001313
#00916:0000000000130000
#0091b:0013000000000000
#00918:13
#00910:41
#00818:000000000013000013000000000000000000000000000000
#00815:00130000
#00812:13
#02216:0000000023002414
#0221a:00130014
#0221b:13
#02217:0000001300000000
#02218:0013000000000000
#02212:23
#02214:00230000
#03316:00000013
#03317:0013000000000000
#0331b:13
#03319:0033
#03318:000000000000000000000000000000000000000000000033000000000000000000000000000000000000000000000000
#02416:000000130000000000000000240000000000003300000000
#02412:1300000000230000
#02417:000000000000000000130000000000000000000033000000
#0241b:00130000
#02413:000033
#02414:000000000000000000000000000000000033000000000000
#02415:00000033
#02616:00000000000000000000001400001400
#0261a:1400140000140014
#02612:00000000000000000000001400000000
#02816:00000000000000000000002400001400
#02812:1400140000240024
#0281a:00000000000000000000002400000000
#0271a:00141400
#02716:0000001400000014
#02712:00002614
#02710:0041
#01712:13
#0171b:00001313
#01719:0000000000000013
#01716:00000013
#01714:0000000000000013
#0171a:24
#0171f:21
#01710:0041
#0191b:13
#01912:24001313
#01914:0000000000000013
#01917:00000013
#01919:0000000000000013
#01815:0000000000000013
#01818:00000013
#01817:13000013000000000000000000000000
#01812:13000013000000000000000000000000
#01816:0013001300000000
#0181b:0013000000000000
#02912:00141400
#02916:0000001400141400
#0291a:0000000000000014
#02918:0026
#03016:1414
#0301a:00142400
#03012:0000140000000014
#03015:00000014
#03013:0000000000140000
#03019:00000024
#03118:2400001400000014
#03112:0014
#03114:0000000000140000
#0311a:00240014
#03116:00142424
#03110:0041
#0201b:13000013000000000000000000000000
#02016:13000023000000000000000000000000
#02012:0013000000000000
#02018:0000000000000013
#02015:00000013
#02017:0023002300000000
#02117:00001313
#02112:13000013
#02116:0013000000000000
#0211a:24
#00418:0000000000000013
#00415:00000013
#00412:0000000000130000
#00215:0000000000000013
#00218:00000013
#0021b:0000000000130000
#00116:0013
#00114:00000013
#00512:0013
#00515:00000013
#00510:41
#0071b:00130000
#00712:00000013
#00612:0013
#00615:00000013
#00319:00000013
#00317:0013
#03418:23
#03419:0023000000000000
#0341a:00230000
#0341b:0000002300000000
#03412:23
#03413:0023000000000000
#03414:00230000
#03415:0000002300000000
#0155a:14
#0165b:13
#01655:0012
#01659:0012
#01652:13
#02656:0000000000000024
#0265a:1400000000000024
#02652:00000000000000000000005400000000
#02552:0054
#02558:0016
#02856:0000000000000024
#0285a:00000000000000000000006400000000
#02852:1400000000000024
#01752:23
#0175a:14
#0175b:0013
#0195b:23
#01952:1413
#02956:4400000000240000
#02952:0054
#02958:0016
#0295a:44
#0275a:0064
#02752:3416
#02756:34
#03052:0000540000000054
#03056:1464
#03055:00000064
#03053:0000000000540000
#03357:0023000000000000
#0335b:63
#0095b:0023000000000000
#00958:53
#00955:13
#01152:0023000000000000
#01155:63
#01158:13
#01857:00000023000000000000000000000000
#01856:0000002300000000
#01852:0033
#02152:53
#02156:0023000000000000
#02157:00001353
#0215a:14
#0225b:63
#0225a:00630000
#02257:0000005300000000
#02258:0053000000000000
#02056:00000023000000000000000000000000
#02057:0000002300000000
#0205b:0043
#0125b:00130000000000000000000000000000
#02456:0014
#0013b0:1300003300000000
#002370:23
#001321:13230000
#002321:13
#002361:00000023000000000000000000000000
#0023b0:00000013000023000000000000000000
#002361:0000001300000000
#002321:00000023
#003321:1300003300000000
#004361:23
#0033b0:13230000
#0043b0:13
#004370:00000023000000000000000000000000
#004321:00000013000023000000000000000000
#004370:0000001300000000
#0043b0:00000023
#0053b0:1300003300000000
#006370:23
#005351:13230000
#006321:13
#006361:00000023000000000000000000000000
#0063b0:00000013003300000000000000000000
#006390:0000000000000000000000330000000000000000000000000000000000000000
#006370:0000003300000000
#0073b0:23
#007321:1323
#007361:00530000
#0073b0:0013
#007370:00000053
#0083b0:23
#008350:0000001323000000
#0083b1:0000000013230000
#008320:0000000000132300
#008381:0000000000001323
#008350:0000000000000013
#009350:23
#009381:13
#0093b1:0053000000000000
#009371:00230000
#009320:00130000
#009360:0000002300000000
#0093b1:0000001300330000
#009371:00003323
#009321:00000000000000000000000000000013
#010321:0023000000000000
#010381:0000001323000000
#010320:0000000013230000
#0103b1:0000000000132300
#010350:0000000000001323
#010381:0000000000000013
#011381:23
#011350:13
#011320:0053000000000000
#011360:00230000
#0113b1:00130000
#011371:0000002300000000
#011320:0000001300330000
#011360:00003323
#0113b0:00000000000000000000000000000013
#0123b0:00230000000000000000000000000000
#015320:0014002400000000
#015350:00000034000000000000000000000000
#0153b0:00000000000000000000001300000000
#015370:00000000000000000000000000230000
#015321:00000000000000000000000000130000
#016321:23
#017321:13
#017361:00230000
#0173b0:00130000
#017370:0000002300000000
#017321:0000001300000000
#017361:0023
#018371:00000013000000000000000000000000
#0183b1:0000002300000000
#018360:0000001300000000
#018320:0023
#0193b0:13
#019370:00230000
#019321:00130000
#019361:0000002300000000
#0193b0:0000001300000000
#019370:0023
#020360:00000013000000000000000000000000
#020320:0000002300000000
#020371:0000001300000000
#0203b1:0023
#021321:13230000
#021361:0053000000000000
#021370:00130000
#0213b0:0000002300000000
#021361:0000001300000000
#021321:0023
#021371:00000013
#0223b1:33
#022381:0033000000000000
#0223a1:00330000
#022371:0000003300000000
#022391:0023
#024371:13
#0243b1:0023000000000000
#024361:00130000
#024321:0000002300000000
#024321:0000000000130000
#024331:000033
#024341:000000000000000000000000000000000033000000000000
#024351:00000033
#024361:000000000000000000000000000000000000003300000000
#024371:000000000000000000000000000000000000000033230000
#025321:0000000014000034
#025361:00000034
#026361:24
#026361:00140000
#026321:0000002400000000
#0263a0:0000001400000000
#026360:0024
#026321:0014
#026361:0000000000240000
#026321:00000000000000000000001400000000
#026361:0000000000000034
#027321:24
#0263a0:0000000000000014
#027360:24
#0273a0:0000000014000034
#027360:00000034
#028360:24
#028360:00140000
#0283a0:0000002400000000
#028321:0000001400000000
#028361:0024
#0283a0:0014
#028360:0000000000240000
#0283a0:00000000000000000000001400000000
#028360:0000000000000034
#0293a0:24
#028321:0000000000000014
#029361:24
#029321:00001434
#029361:0000000000540034
#030321:24
#030321:0000140000000034
#030361:0034
#030331:0000000000340000
#030351:00000034
#031341:24
#032361:14
#0323a1:00240000
#032320:14
#032360:00240000
#0323a0:0014
#032360:0000000000240000
#032320:00000014
#032360:0000000000000024
#0333b0:13230000
#033370:0053000000000000
#033361:00130000
#033321:000000000000000000000023000000000000000000000000
#033370:000000000000000000000013000000000000000000000000
#033380:000000000000000000000000000000000000000000000033000000000000000000000000000000000000000000000000
#033390:0033
#0333b0:00000023
#0343b0:0000001300000000
#0353c0:22
#035361:12
#035321:0022
#035380:0012
#0363c0:22
#0363a0:0012
#0383c0:22
