This file was generated by Ched 2.6.4.0.
#TITLE ""
#ARTIST ""
#DESIGNER ""
#DIFFICULTY 0
#PLAYLEVEL
#SONGID ""
#WAVE ""
#WAVEOFFSET 0
#JACKET ""
#REQUEST "ticks_per_beat 480"
#00002: 4
#BPM01: 75
#00008: 01
#TIL00: ""
#HISPEED 00
#MEASUREHS 00
#03612:13
#03615:00130000
#01415:130000000000000000000000000000000000000013000013
#0141b:23000013
#01418:0000002300000013
#01414:0013000000000000
#01413:00130000
#0141a:0023000000000000
#01419:00230000
#00115:0013
#00112:13000013
#00118:0000130000000013
#0011b:1300000000130000
#00718:0013000000130013
#00715:00131300
#00712:0000001300000000
#0071b:13000013
#00915:00001313
#00918:0000000000130000
#0091b:13
#00912:0000001300000000
#00910:41
#0261a:0000140000140000
#02612:14000000000014000000001400000000
#02616:0000000014000014
#02516:0000000000000014
#0251a:00002414
#02518:242400000000
#02514:002400000000000000000000
#02512:0024
#0271a:00142400
#02716:0000001400000014
#02712:00002414
#02710:0041
#01815:1300000000000013
#01818:00000013
#01812:00000013000000000000000000000000
#01816:0000001300000000
#02912:00142400
#02912:00140000
#02916:0000001400000000
#02916:0000001400000000
#0291a:0024
#03116:2400001400002400
#03118:0000000000000014
#03112:1424
#03114:0000000000140000
#0311a:00240000
#03110:0041
#0171b:00000013
#01718:0000000000000013
#0171a:24
#01712:24
#0171f:21
#01710:0041
#02018:1300000000000013
#02015:00000013
#0201b:00002313000000000000000000000000
#02017:0000001300000000
#00318:0013
#0031b:13000013
#00315:0000130000000013
#00312:1300000000130000
#00516:0013
#00515:00000013
#00514:00130000
#00518:0000000000000013
#00512:13
#00517:13
#0051b:0000000013130000
#00510:41
#00618:00000000000000130000000000001300
#00615:00001313
#00612:0000000000130000
#00818:0000001313000000
#00812:0013
#00815:0000000000131300
#0081b:0000000000001313
#01118:00001313
#01115:0000000000130000
#01112:13
#0111b:0000001300000000
#01015:0000001313000000
#0101b:00131300
#01018:0000000000131300
#01012:0000000000001313
#01218:00130000
#01219:0013
#0121a:00000013
#01215:0000001300000000
#01216:0000000000130000
#01217:0000000000000013
#01212:00220000
#01213:0022
#01214:00000022
#0131b:13
#0131f:11
#01315:22
#01317:0022
#01518:0000001300000000
#01515:0013
#01912:24000013
#01915:0000000000000013
#0191a:24
#02218:00130000
#0221b:0013
#02216:0000000000000014
#02215:2323
#02212:00230000
#0221a:00000024
#02316:0014001400000000
#02312:2424
#0231a:00240000
#02310:41
#02812:0000140000240000
#0281a:14000000000014000000001400000000
#0281a:00000000000000000000002400000000
#02816:0000000014000014
#03012:00140000
#03014:00000014
#0301a:0024
#03018:00000024
#03312:13
#03316:0013000000000000
#0331b:0013
#03317:0000000000130000
#03314:0000001300000013
#03319:0000001300000013
#01618:00000000002300000000000000000000
#0161b:0023
#01615:0023000000000000
#03412:23
#03415:0023000000000000
#03418:00230000
#0341b:0000002300000000
#0211a:24
#02112:24
#02412:0023
#02413:000033
#02414:000000000000000000000000000000000033000000000000
#02415:00000033
#02416:000000000000000000000000000000000000003333000000
#0321a:24
#02652:00000000000000000000005400000000
#02656:0000000000000064
#0095b:63
#01152:53
#01852:00000053000000001300000000000000
#01856:0000006300000000
#0205b:00000063000000001300000000000000
#02057:0000005300000000
#02856:0000000000000054
#0285a:00000000000000000000006400000000
#03052:00540000
#03352:53
#03356:0063000000000000
#0335b:0063
#03357:0000000000530000
#0165b:0013
#01658:13
#0255a:0014
#02552:0014
#0175a:14
#01752:14
#0215a:14
#02152:14
#01952:14
#0195a:14
#02752:1414
#0275a:0014
#0295a:1414
#02952:0014
#002320:13000023
#002340:00000033000000000000000000000000
#002360:0000003300000000
#0043b0:13000023
#004390:00000033000000000000000000000000
#004370:0000003300000000
#006320:13
#006350:00000033000023000000000000000000
#008350:13
#008320:00000023000000000000000000000000
#0093b0:13
#009370:00230000
#009320:0000000000000013
#009350:00000000000000000000000000000033
#010350:0023000000000000
#011320:13
#011360:00230000
#0113b0:0000000000000013
#011380:00000000000000000000000000000033
#012380:00230000000000000000000000000000
#014320:0000001300230000
#014381:0000001300230000
#015381:13
#0153b1:00003323000000000000000000000000
#015321:00000000000000000000133300000000
#015351:00000000000000000000000000230000
#015380:00000000000000000000000000130000
#016380:23
#0173b0:00132300
#017370:0000003300000000
#017361:00132300
#017321:0000003300000000
#018321:00001333000000002300000000000000
#018361:0000003300000000
#019321:00132300
#019361:0000003300000000
#019370:00132300
#0193b0:0000003300000000
#0203b0:00001333000000002300000000000000
#020370:0000003300000000
#0213b0:00130000
#021380:0000002300000000
#021351:0000001300000000
#021321:0023
#0213b1:00000013
#022381:23
#0233b1:00000013
#023371:0000000000000023
#024321:13
#024361:0023000000000000
#0243b1:00130000
#024371:0000002300000000
#024321:0000000013330000
#024331:000033
#024341:000000000000000000000000000000000033000000000000
#024351:00000033
#024361:000000000000000000000000000000000000003333230000
#026321:00000000000000000000001400000000
#026361:0000000000000034
#027321:24
#0283a1:00000000000000000000001400000000
#028361:0000000000000034
#0293a1:24
#0293a1:00000014
#029361:0000000000000024
#029320:0000000000000014
#030360:24
#030320:00140000
#030360:0024
#0323a0:14
#032360:00240000
#032320:0000001400240000
#032360:0034
#0323a0:00000014
#032360:0000000000000024
#033320:13230000
#033360:0033000000000000
#0333b0:00001323
#033370:0000000000330000
#0343b0:0000001300000000
#0353b0:23
#035351:1323
#035380:0013
#036380:23
#036380:0013
#0383c0:22
