This file was generated by Ched 2.6.4.0.
#TITLE ""
#ARTIST ""
#DESIGNER ""
#DIFFICULTY 0
#PLAYLEVEL
#SONGID ""
#WAVE ""
#WAVEOFFSET 0
#JACKET ""
#REQUEST "ticks_per_beat 480"
#00002: 4
#BPM01: 75
#00008: 01
#TIL00: ""
#HISPEED 00
#MEASUREHS 00
#0151a:14000014000014000000000000000000
#01512:14000014000000001400000000000000
#01516:00001400000000140014140000000000
#01515:000000000000000000000000000000000013000013000000
#0151b:000000000000000000000000000000000000000000000013
#01412:000000000000000000230000000000000013000000000000
#01418:000000000000001300000000
#01415:1600001600130000
#01417:0016000000000000
#01413:00160000
#01416:000000000014
#01414:000000230000000000000000000000000000000000000014
#0141b:23
#01419:00230000
#01218:000000130013
#01219:0000001300130000
#0121a:00130013
#0121b:0000000000000013
#01216:000000000000001300000000
#01212:00220000
#01213:0022
#01214:00000022
#01217:000000000000000000000000000000000000000000000000000000000000000000000000000000000000000000000022
#01215:000000000000000000000000000000000000000000000022
#00214:0000000000000013
#00216:00000013
#00212:0000000000130000
#00213:00000000000000000000000000000013
#00116:1300000013130000
#00114:0013001300001300
#00112:000000000000130000000000000000000000000013130000
#00512:000000000000000000130013130000130000000000000000
#00514:00130013
#00516:000000130000000000000000000000000000000013130000
#00510:41
#0081b:131300
#00815:0013130000000000
#00818:000000000013000000000000000000000000000000000000
#00814:0000001300000000
#00816:00000000000000130000001300000013
#00819:0013
#00817:00000000000000000013000000130000
#00813:0000000000130000
#0081a:00000013
#00812:0000000000000013
#00717:000000130000000000000000000000000000000013130000
#00719:00131313
#0071b:0000001300130000
#0071a:00000000000000130000000000000000
#0101b:0013000000000013
#01016:0013000000000000000000000000000000001300000000000000130000000000
#01012:001300
#01018:00130000
#01015:000000000013000000000000000000000000000000000000
#01019:0000001300000000
#01017:00000000000000130000001300000013
#01014:0013
#0101a:0000000000130000
#01013:00000013
#01615:0022000012000000
#01617:000000001200000000000000000000220000000000001200000000000000000000000000000000000000000000000000
#0161b:13
#01619:0022
#02516:15000000000000000000000014000014
#02517:000015002300000000000000000000140000000000000000
#02512:000000001500000000000000140000000000000000140000
#0251a:0000000000000014
#0251b:23
#02514:002300000000000000000000
#02518:0026
#0091b:0013000013130013
#00917:13000000000000000000000000000013
#00912:00000000130000130000001300000013
#00916:0000000000000013
#00918:00000000000013000013000013000000
#00915:0000001313130000
#00910:41
#0341b:1313000000000000
#03418:000000001300000013260000000000000000000000000000
#03415:000000000013001300000000000000000000000000000000
#03412:2600131300000000
#03414:0026000000000000
#03416:00260000
#03312:1300000000130013
#03318:000000000000000000000000000000000000000000000013
#0331b:130000000000000000000013000000000000000000130000
#03314:0000001300000000
#03316:000000130000000000000013130000000000000000000000
#03317:00130000
#0331a:000000000000000000000000000000000000000000000033000000000000000000000000000000000000000000000000
#00419:0000000000000013
#00417:00000013
#0041b:0000000000130000
#00418:00000000000000000000000000000013
#00317:000000000000000000000013130000130000000000000000
#00319:000000130000000000130000000000000013130000000000
#0031b:000000000000130000000000000000000000000013130000
#00615:00000000003300001300000000000000
#00612:0000000000130000
#00614:00000013
#00616:0000000000000000000000330000130000000000000000000000000013000000
#01112:0013000013130013
#0111b:00000000130000130000001300000013
#01115:00000000000013000013000013000000
#01117:0000000000000013
#01118:0000001313130000
#01116:13000000000000000000000000000013
#02412:1300130024260000
#0241b:130000000000000013130000000000000000000000000000
#02416:000000000000130000000000000000130000000000000000000000000000000000000000000026000000000000000000
#02417:000000130000000000000000130000000000000000000000000000000000000000000000000000002600000000000000
#02418:0000000000000026
#02414:000000000000000000000000000000000026000000000000
#02413:000026
#02415:00000026
#0241a:0024
#02312:000000140000000000000000240000000000130000000013
#0231b:0000000000130013
#02317:00000013
#02316:1414240014130013
#0231a:24140000
#02318:0000001400000000
#02314:0000001400000000
#02310:41
#0221b:0000001300130000
#02212:2313000000001400
#02216:0000231300132400
#02214:0000000000000014
#02217:0013000023000000
#02218:0000000000000014
#02114:0000000000130000
#02119:0000000000130000
#02117:13001300001300000000000013000000
#02112:0013001300001300
#0211b:0000130013000013
#02116:00000000000000130000000000001300
#0211a:24
#02012:0000000013000013
#02012:0023
#02016:00000000000000130000000013000000
#0201b:000000230023000000230000000000000000130000000000
#02019:0000000000130000
#02014:0000000000130000
#02017:0000230000000013
#0191b:1300000013001313
#01917:00000000000013000000000000130013
#01912:0013001300001300
#01919:0000000000130000
#01914:0000000000130000
#01915:0013000000000000
#01916:24000000000000130000000000001300
#01712:1300000013001313
#01716:24000000000013000000000000130013
#0171b:0013001300001300
#01714:0000000000130000
#01719:0000000000130000
#01717:00000000000000130000000000001300
#01718:0013000000000000
#0171f:21
#01710:0041
#01812:000000130013000000130000000000000000130000000000
#0181b:0000000013000013
#01817:00000000000000130000000013000000
#01814:0000000000130000
#01819:0000000000130000
#01816:0000000000000013
#02616:00001400141400140014140000000014
#02612:140000000000140000140000000000000014000000140000
#0261a:0014001414001400
#0271a:0014140014000014
#02714:0000001400000000
#02712:0014000026000014
#02718:0000001400000000
#02716:14000000140000000000000014000014
#02715:0000000000140000
#02710:0041
#02912:0014140014000014
#02918:0000001426140000
#02914:0000001400000000
#02916:24000000140000000000000000140014
#0291a:0014000000001400
#0321b:0000000000000013
#03217:00000013
#03212:1400281400131400
#03216:28001400000000001314000000140000
#0321a:0000141414000000
#03218:000000000000000000000013
#03215:000000000000000000000000000000000000000000000013
#03116:0014001428140014
#03112:24281428
#0311a:00140014
#03110:0041
#03014:0014001400000000
#03018:0014000000000000
#03012:0000140000140000
#0301a:1400140000002414
#03016:00000000000000002400141400001414
#02816:00001400141400140014240000000014
#02812:0014001414002400
#0281a:140000000000140000140000000000000024000000240000
#0131f:11
#01319:2222
#01317:000000000000000000000000000000000000000000000022000000000000000000000000000000000000000000000000
#01315:000000000000000000000022000000000000000000000000
#0155a:1400006400000000
#01552:14000054000000005400000000000000
#01556:00000000000000240024000000000000
#01555:000000000063
#01655:0012
#0165b:13
#01659:0012
#01652:13
#0095b:0023000000000000
#00957:53
#00955:0000006353630000
#00952:33000000000000230000002300000053
#00958:00000000000000000023000000000000
#01152:0023000000000000
#01158:0000005363530000
#0115b:43000000000000230000002300000063
#01155:00000000000000000023000000000000
#01156:63000000000000000000000000000063
#01056:0023000000000000000000000000000000002300000000000000230000000000
#01059:0000006300000000
#01057:00000000000000230000002300000023
#01054:0053
#0105a:0000000000630000
#01053:00000053
#0105b:0000000000000063
#02452:0000533314000000
#0245b:6343000000000000
#02457:00230000000000000000000000000000
#02456:00000000002300000000000000000000
#0245a:0014
#02152:0023005333001300
#02157:63000000002300000000000053000000
#0215b:0000630000000023
#02156:00000000000000230000000000000000
#0215a:14
#0195b:6300000000006363
#01955:0023000000000000
#01952:0000005333000000
#01957:00000000000000000000000000230023
#01956:14000000000000230000000000000000
#01752:5300000000005353
#01758:0023000000000000
#0175b:0000006343000000
#01756:14000000000000000000000000230023
#01757:00000000000000230000000000000000
#01852:0000005333000000
#01857:00000000000000230000000000000000
#02257:3323000000000000
#02256:0000002300000000
#0225b:00430000
#02252:0033
#02557:0000000000240000
#02552:0054
#02556:00000000000000000000000054000024
#0255a:0000000000000064
#02558:0046
#02652:3400545400000054
#0265a:44006464
#02656:00000000002400240024000000000024
#02958:0000000046240000
#02952:0000000054000054
#0295a:44000064
#02956:34000000000000000000000000240024
#03052:3400140000540000
#03054:0000002400000000
#0305a:4400640000004464
#03056:00000000000000003400002400000024
#0325a:0000000064440000
#03252:0000000000005434
#03256:00000000000000000024000000240000
#03352:5300000000530000
#03356:0063000063000000
#0335b:230000000000000000000063000000000000000000000000
#03357:00530000
#02056:00000000000000230000000000000000
#0205b:0000006343000000
#02756:44000000000000000000000064000024
#02755:0000000000240000
#0275a:0064
#02752:3400000036000054
#02856:00000000002400240024000000000024
#02852:34005454
#0285a:4400646400000064
#00854:0000005300000000
#00856:00000000000000230000002300000023
#00859:0063
#00857:00000000000000000023000000230000
#00853:0000000000530000
#0085a:00000063
#00852:0000000000000053
#03152:34
#01252:00130000000000000000000000000000
#01257:00130000000000000000000000000000
#0013b0:1300003300000000
#001370:00000033000000000000000000000000
#001390:00000000000000000000000000000000000000000000000000000000000000000000000000000000005300000000000000000000000000000000000000000000
#002360:3300003300000000
#0023b0:00000033000000000000000000000000
#002390:00000000000000000000000000000000000000000000000000000000000000000000000000000000000000000000005300000000000000000000000000000000
#0033b0:23
#002321:1300002300000000
#002371:00000033000000000000000000000000
#003321:1300003300000000
#003361:00000033000000000000000000000000
#003341:00000000000000000000000000000000000000000000000000000000000000000000000000000000005300000000000000000000000000000000000000000000
#004371:3300003300000000
#004321:00000033000000000000000000000000
#004341:00000000000000000000000000000000000000000000000000000000000000000000000000000000000000000000005300000000000000000000000000000000
#005321:23
#0043b0:1300002300000000
#004360:00000033000000000000000000000000
#005370:1300003300000000
#0053b0:00000033000000000000000000000000
#0063b0:3300003300000000
#006360:00000033000000000000000000000000
#0073b0:23
#006371:1300002300000000
#006321:00000033000000000000000000000000
#006351:00000000003300000000000000000000
#006361:0000000000000000000000330000000000000000000000000000000000000000
#007361:1300003300000000
#007321:00000033000000000000000000000000
#008321:23
#008341:0000001323000000
#008361:00000000000000530000000000000000
#008390:0000000013230000
#008370:00000000000000000053000000000000
#008331:0000000000132300
#008361:00000000000000000000005300000000
#0083a0:0000000000001323
#008370:00000000000000000000000000530000
#008321:0000000000000013
#008361:00000000000000000000000000000053
#009321:23
#009370:13230000
#0093b0:0053000000000000
#009350:0000001333332300
#009320:00000000000000530000005300000000
#009380:00000000000000000053000000000000
#009320:00000000000000000000000000000013
#010360:0053000000000000000000000000000000000000000000000000000000000000
#010320:0023000000000000
#010390:0000001323000000
#010370:00000000000000530000000000000000
#010341:0000000013230000
#010361:00000000000000000053000000000000
#0103a0:0000000000132300
#010370:00000000000000000000005300000000
#010331:0000000000001323
#010361:00000000000000000000000000530000
#0103b0:0000000000000013
#010370:00000000000000000000000000000053
#0113b0:23
#011361:13230000
#011321:0053000000000000
#011381:0000001333332300
#0113b1:00000000000000530000005300000000
#011351:00000000000000000053000000000000
#011361:00000000000000000000000000000013
#012321:00230000000000000000000000000000
#0113b0:00000000000000000000000000000013
#012370:00230000000000000000000000000000
#0143a0:000000000000000000142400
#014380:000000000000000000000000000000000000000000140024
#015320:00000014000000000000000000000000
#015360:0000002400000000
#0153a1:0000001424000000
#015361:00000000000000540000000000000000
#015320:0000000014240000
#015360:00000000000000000054000000000000
#015380:000000000000000000132300
#015351:000000000013
#016321:23
#017321:13230000
#017381:0053000000000000
#017370:00000000130000530000000000000000
#0173b0:0000003323000000
#017320:0000000000001333
#017360:00000000000000000000000000530053
#018320:23
#0183b1:13
#018361:0023000000000000
#018361:00130000
#0183b1:0000002300000000
#018320:0000001323000000
#018370:00000000000000530000000000000000
#0193b0:13230000
#019350:0053000000000000
#019361:00000000130000530000000000000000
#019321:0000003323000000
#0193b1:0000000000001333
#019371:00000000000000000000000000530053
#0203b1:23
#020320:13
#020370:0023000000000000
#020370:00130000
#020320:0000002300000000
#0203b1:0000001323000000
#020361:00000000000000530000000000000000
#021371:13230000
#021321:0053000000000000
#0213b0:0000132300000000
#021370:00000000005300000000000000000000
#021321:0000001323000000
#021361:00000000000000530000000000000000
#021371:00000013
#0213b1:0000000000000053
#022371:23
#022371:0013000000000000
#0223b1:00230000
#022361:0000001300000000
#022321:0023
#0243b1:1323000000000000
#024371:00530000000000000000000000000000
#024321:0000132300000000
#024361:00000000005300000000000000000000
#025321:00001424
#025371:0000000000540000
#025360:00000000000000000000000014000054
#0253a0:0000000000000034
#0263a0:24
#026320:0000143424000000
#026360:00000000005400540000000000000000
#0263a1:0000000014240000
#026361:00000000000000000054000000000000
#0263a1:00000014
#026361:0000000000000024
#026320:0000000000000014
#026360:00000000000000000000000000000054
#027320:24
#0273a0:00001424
#027350:0000000000540000
#027361:00000000000000000000000014000054
#027321:0000000000000034
#028321:24
#0283a1:0000143424000000
#028361:00000000005400540000000000000000
#028320:0000000014240000
#028360:00000000000000000054000000000000
#028320:00000014
#028360:0000000000000024
#0283a1:0000000000000014
#028361:00000000000000000000000000000054
#0293a1:24
#029321:00001424
#029381:0000000000540000
#0293a0:0000000000001424
#029360:00000000000000000000000000540000
#029321:0000000000000014
#029361:00000000000000000000000000000054
#030321:24
#0303a1:00142400
#030341:0000005400000000
#030321:0000000000142400
#030361:00000000000000000000005400000000
#0303a1:0000000000000014
#030361:00000000000000000000000000000054
#0313a1:24
#0323a1:0000000014240000
#032361:00000000000000000054000000000000
#032321:0000000000001424
#032361:00000000000000000000000000540000
#033321:13230000
#033361:0033000000000000
#0333b0:130000000000000000000033000000000000000000000000
#033370:00330000
#0333a0:000000000000000000000000000000000000000000000033000000000000000000000000000000000000000000000000
#033390:00003323
#033361:00001323
#033321:0000000000330000
#034381:0000001600000000
#0353c1:22
#035320:12
#035370:0022
#0353c1:0012
#036371:22
#036320:1222000000000000
#036350:0000122200000000
#036380:0012
#0383c0:22
