This file was generated by Ched 2.6.4.0.
#TITLE ""
#ARTIST ""
#DESIGNER ""
#DIFFICULTY 0
#PLAYLEVEL
#SONGID ""
#WAVE ""
#WAVEOFFSET 0
#JACKET ""
#REQUEST "ticks_per_beat 480"
#00002: 4
#BPM01: 75
#00008: 01
#TIL00: ""
#HISPEED 00
#MEASUREHS 00
#02912:00140000
#02912:00140000
#02916:0000001400001400
#02916:0000001400000000
#0291a:0000000000000014
#02918:0026
#0011a:14
#00114:0014
#0091a:14
#00914:0014
#00918:00000014
#00910:41
#00312:14
#00318:0014
#0051a:14
#00514:0014
#00510:41
#00612:00000014
#0071a:14
#00714:00140000
#00718:0014
#00712:00000014
#0081a:14
#00812:0014
#00816:00000014
#01012:14
#0101a:0014
#01016:00000014
#01112:14
#01118:0014
#01114:00000014
#0121a:14
#01212:0014
#01216:00000014
#0131a:14
#01312:0014
#0131f:11
#0151a:14
#01516:00140000
#01512:0014
#01518:00000014
#01714:0000140014000014
#01718:2600001400000000
#0171a:00000014
#0171f:21
#01710:0041
#01818:14
#01812:0014000000000000
#0181a:00000014
#01816:0000000000000014
#01918:0000140014000014
#01914:0000001400000000
#01912:26000014
#02014:14
#02012:00000014
#02016:0000000000000014
#0201a:0014000000000000
#02114:00140014
#02118:2600001400000000
#02112:0014
#0211a:00000014
#02212:14001414
#02218:1400000014000014
#02214:00140000
#0221a:00140000
#02314:1400140000000014
#02312:0014
#0231a:0014000000000000
#02318:0000001400001400
#02310:41
#02412:0014
#02512:00000014
#02516:0000000000000014
#02518:0026
#0261a:1414
#02618:00140000
#02614:0000001400000034
#02612:0000000000140000
#02615:00000000000000000000000000140000
#0271a:00140014
#02716:0000001400000014
#02712:0026
#02710:0041
#02812:1414
#02814:00140000
#02818:0000001400000034
#0281a:0000000000140000
#02817:00000000000000000000000000140000
#03012:14140014
#03018:00140014
#0301a:0014
#03014:0014
#03114:1400001400000014
#0311a:14140000
#03118:00001414
#03112:0000000000140000
#03110:0041
#03212:0000001400000000
#03312:14
#03318:0000140000000014
#03314:0000001400001400
#0331a:0014
#03512:14
#03514:0014
#03616:14
#03618:00140000
#01616:0024
#01418:24240000
#01414:0024002400000000
#03412:26
#03414:0026000000000000
#03416:00260000
#03418:0000002600000000
#0095a:64
#01152:54
#01852:0054000000000000
#01855:0014
#02452:0014
#02652:0000000000540000
#02655:00000000000000000000000000240000
#0205a:0064000000000000
#02057:0014
#0285a:0000000000640000
#02857:00000000000000000000000000240000
#03352:14
#0335a:0014
#01656:0014
#01758:16
#01952:16
#02158:16
#02558:0016
#02752:1416
#02958:0016
#0295a:14
#03458:0000001600000000
#0023a0:14000024
#002380:0000003400000000
#004320:14000024
#004340:0000003400000000
#0063a0:14
#006380:0024
#0093a0:14
#009380:00240000
#011320:14
#011340:00240000
#014340:0000001400002400
#016320:1434000000000000
#016340:00000000003400000000000000000000
#016360:0024
#018320:0014000000000000
#018350:0000003424000000
#0203a0:0014000000000000
#020370:0000003424000000
#0243a0:1400002400000000
#024380:0034340000000000
#026320:0000000000140000
#026350:00000000000000000000000000540000
#026340:0000000000000034
#027320:24
#0283a0:0000000000140000
#028370:00000000000000000000000000540000
#028380:0000000000000034
#0293a0:24
#0323a0:14
#032380:00240000
#032380:0000000014000024
#0323a0:0000000000343400
#0363a0:0014
#0383a0:24
