This file was generated by Ched 2.7.0.0.
#TITLE ""
#ARTIST ""
#DESIGNER ""
#DIFFICULTY 0
#PLAYLEVEL
#SONGID ""
#WAVE ""
#WAVEOFFSET 0
#JACKET ""
#REQUEST "ticks_per_beat 480"
#00002: 4
#BPM01: 134
#00008: 01
#TIL00: ""
#HISPEED 00
#MEASUREHS 00
#00019:14
#00113:14
#00219:14
#00313:14
#0041a:14
#0051a:14
#00614:14
#00714:14
#00818:14
#00918:14
#01012:14
#01112:14
#0121a:14
#01210:41
#01314:14
#01418:14
#01512:14
#01914:14
#02012:0016
#02018:26
#02010:41
#02212:16
#02218:0016
#02418:1616
#02512:1616
#02812:0016
#02818:26
#02810:41
#03012:16
#03018:0016
#03218:1616
#03312:1616
#03919:14
#04112:14
#04218:14
#04314:14
#0441a:14
#04612:0014
#04718:0014
#04710:41
#04814:0014
#0481f:0011
#0491a:0014
#05012:0014
#05118:0014
#05214:0014
#0531a:0014
#05818:16
#05812:0016
#05810:41
#05912:16
#06212:16
#06312:0016
#06418:16
#06518:0016
#06618:16
#06612:0016
#06712:16
#06718:0016
#06812:16
#06818:0016
#07312:0016
#07418:16
#07518:0016
#07612:16
#03713:14
#03710:00410000
#04513:24
#04519:24
#05619:0024
#05613:0024
#05718:0026
#0571f:00210000
#06118:0026
#06912:2626
#06918:00260000
#07118:0026
#0163a0:1434
#0173a0:3434
#0183a0:24
#021380:1626
#023320:1626
#026380:1626
#027320:1626
#029380:1626
#031320:1626
#034380:1626
#035320:1626
#036390:1424
#045330:1424
#045391:1424
#054321:0014
#055321:0024
#059381:0016
#060381:26
#060321:0016
#061321:26
#062381:0016
#063381:26
#064321:0016
#065321:26
#069321:0016
#071321:26
#071381:0016
#073381:26
#074321:0016
#075321:26
#076381:0016
#077381:00000000000000260000000000000000
