This file was generated by Ched 2.7.0.0.
#TITLE ""
#ARTIST ""
#DESIGNER ""
#DIFFICULTY 0
#PLAYLEVEL
#SONGID ""
#WAVE ""
#WAVEOFFSET 0
#JACKET ""
#REQUEST "ticks_per_beat 480"
#00002: 4
#BPM01: 134
#00008: 01
#TIL00: ""
#HISPEED 00
#MEASUREHS 00
#0001b:1313
#00015:00130000001300001300000000000000
#00018:0013131300130000
#00012:00000013000000000000130000130000
#00017:00000013
#00019:0000000000000013
#00014:00000000000000000000000000000013
#0011b:13000013000000000000000013330033
#00116:00130000000000000000000000000000
#00117:0000000013000013
#00118:0000000000130000
#00115:00000000000000000000001300000000
#00112:0000000000000000003333333333333300000000000000000000000000000000
#00218:0000000000001313
#00215:00000000000000000000000000130013
#00212:23002300133300330000230000000000
#00216:0000001300000000
#0021b:0023130023230000
#00318:130000130000000000000000133333333333000000000000
#00312:000000130000000000130000000000000000000000000000000000000000000000000000140000001400000014000000
#0031b:0000131300000000
#00315:00000000001300130000000000000000
#00412:1400001313001300
#00415:00000013000000000000000000001300
#00416:0000000000130000
#00418:00001300000000000000000000130000
#0041b:00000000130000000000130000000013
#00512:13000000130000000000001300000013
#00518:00000013000000000000130000001300
#0051b:0000001313001300
#00515:00001300000000000013000000130000
#0111b:13000013
#01115:00130000000000000000001300000000
#0111a:0013000000130000
#01119:00131300
#01114:00000013000000000013000000000000
#01113:00000000001300130000000000000000
#01118:0000001300000000
#01112:0000000000000013
#01117:0000000000000013
#01616:1212120000000000
#01618:00120012000000001200120012000000
#01615:00000000000000000012001200000000
#01716:1212120000000000
#0171a:00120012000000000000000000000000
#01718:0000000012121200
#01713:00000000000000000012001200000000
#01812:13131313
#01815:0000000000130000
#01818:0000000000000013
#0181b:00131313
#01912:13000000001300130000000013001300
#01915:00130013000000000013001300000000
#01918:0013000013130000
#0191b:1300131300001313
#01315:00000000000000000013000000000013
#01318:0000000000130013
#01312:23000000000023000000001300130000
#01316:00140000
#0131b:2300002323002300
#01415:0000000000001313
#01416:00140000
#01418:00000000000000000000000000130013
#0141b:2300002323000000
#01412:2300002323000000
#02018:0013130013000000
#02015:00000013001300000000000000130000
#02013:00000000000000000013000000000000
#02019:0000000000130000
#02014:00000000000000000000001300000000
#0201a:00000013
#0201b:2300000000000013
#02012:23
#02010:41
#02112:13
#02114:00000013000000000000000000000000
#0211b:0000001300001313
#02117:1300000000130000
#02116:00000000000013000000000000130000
#02119:00000013000000000000000000000000
#0241b:0000130013000013
#02415:00000000001300000000000000000000
#02418:0000001300000000
#02412:00000000000000130000232300000000
#02416:0000000000000013
#02517:1300001300000000
#0251b:00000013000000000000130000000000
#02518:00000013
#02515:0000000000000013
#02512:0000001300000000
#0261b:13
#0261a:0000001400140014
#02616:0000000014140000
#02612:1300001414000014
#03418:0000001300001300
#03412:1313
#0341b:1313
#03415:0000130000000013
#0381a:0000000000000012
#03814:2200000000000012
#03812:00160000000000000000000000000000
#0381b:00220000
#03813:00220000
#03914:1200000000000012
#03919:0012120000000000
#03916:00000012000000000000000000000000
#03915:0000001212000000
#03918:00000000000000120000000000000000
#0391a:1200000000121200
#03917:00000000000000000000001200000012
#04014:1212
#04016:0012001200002300
#04018:00120000
#0401a:0012
#0401b:00000023
#0411b:0013001300130013
#04117:00131313
#04112:00131313
#0421b:13131313
#04212:0013001300130013
#04216:13131313
#0431b:13000000000000130000000000001300
#04318:0013130000131300
#04312:00000013000000000000001300000000
#04316:13
#04315:0000001313000013
#04414:001400240014000000000000
#04417:001414140000
#0441a:0000240000140000
#04412:2414
#04415:0000000000140000
#04418:24
#04515:000000000000000014000000000000000000000000000000000000000000000000130000000000000000000000130000
#04512:00000000240000002400000000130000
#04518:000014000000240000000000000000230000000000230000
#04514:241400
#04517:000000000014000000000000
#0451a:2424
#0451b:00000023
#04612:00130000001300000000000000000000
#04615:00000013000000130000130000000000
#04616:0013
#04614:00000013
#04613:0000000000000013
#0461b:23230000
#04618:0023002300000000
#04712:13000000000000130000000013000000
#0471b:0013000000000000
#04716:00000013000000000000000000000000
#04719:00130000
#04714:00000000001300000000000000000000
#04717:0000000000000000000000001300000000333333333333330000000000000000
#04718:0000000000000013
#04715:00000000000000000000000000000013
#04710:41
#0481b:13
#04815:000000000000130000000000000000000000000000130000000000001600000000000000000000001600000000000000
#04818:00000013000013002600000026000000
#04812:000000130000000016000016
#0481f:0011
#0491b:1300000013130000
#04915:0013130000000000
#04918:00000013000013000000000000000000
#04916:00000000000000000000001300000000
#04919:00000013
#04914:00000000000000000000000000130000
#04917:0000000000000013
#04912:00000000000000001300000000000013
#05012:13132626
#05018:00130000001300002600000000000000
#05015:0013001300160016
#0501b:00000013000000130000000000000000
#0511b:0000000013000000130000000000000000333333333333330033333333333333
#05116:00000013000000000000000000000000
#05115:00000000001300000000000000000000
#05118:2600001300000000
#05112:00000000000000130000000000000000
#05215:00130000
#05217:00001300000000130000000000130000
#05218:00000000001300000000000000000000
#05219:00000000000000000013000000000000
#0521b:00000000000000000000001300000013
#05216:13000000000000000000001300000000
#05212:00001300000000130000000000130000
#05214:00000000000000000013000000000000
#05318:0000000000121200
#05316:0033333333333333000000000000000000000000000012000000120000000000
#0541b:12
#05417:00120000000000000000000000000000
#0541a:0012000000000000
#05416:00000012000000000000000000000000
#05419:00120000
#05415:00000000001200000000000000000000
#05418:00000000000012001200001200000000
#05413:0000000000000012
#05412:0012
#0551b:0012000000130000
#05519:00120000
#05517:0000001200000000
#05515:00000000120000000000001300000000
#05518:00000013
#05512:00000000000000000000000000130000
#05513:0000001200000000
#05618:1313000000000000
#05612:00130013000000002300000000000000
#0561b:0000131300000023
#05615:00000000001300000000000000000000
#05617:0023
#05619:00000000000000000000002300000000
#05614:00000000000000000000002300000000
#05616:0000000000000023
#05718:0013000000000000
#05715:00000013000000000000000000000000
#05716:00000013
#0571b:00000000230000000000000000130000
#05714:0000000000000013
#05719:00000000000000000000000000000013
#05712:00230000
#0571f:00210000
#06112:0014001400130000
#06118:00000000000000000000001300000000
#06115:00000013
#0611b:00000000000000000000000000130000
#06116:2414141400000000
#0611a:24140000
#06212:1300000000000013
#06218:00130000000000000000002400000000
#06213:0013000000000000
#06219:00000013000000000000000000000000
#06214:00000000130000000000001300000000
#0621a:00000000001300002400000000000000
#06215:0000001300000000
#06216:0000000013000024
#0631b:0013000000130000
#06312:00000000130000000000000000130000
#06318:00000000001300000000000013000000
#06315:00000000000013000000001300000000
#06815:00001300000000130000130000000013
#06818:00000013000013000000001300001300
#06812:00130013
#0681b:1313
#06915:00001300000000230000000000000000
#06918:00000013000023000000000000000000
#0691b:23232313
#06912:23232300
#07312:0013
#0731b:0000000000130013
#07315:00001300000000000000001300130000
#07318:00000000001300000000000013000000
#0731a:00130000000000000000000000000000
#07319:00000013000000000000000000000000
#07316:13
#07314:00130000
#07313:0000001300000000
#07317:00000000000000130000000000000000
#07417:13000000000000000013000000001300
#0741b:00001300000000000000001300000000
#07418:0000131300000000
#07412:13000000000000001300000000130000
#07415:00000000001300000000000000000000
#07416:00001300000000000000001300000000
#0751b:1313000013000000
#07515:00000013000000130000000013000000
#07518:00000000130013000000001300130000
#07512:00000000001300000000130000001300
#07516:13
#0761b:13000000000000001300000000130000
#07615:00001300000000130000000000000000
#07618:00000013000013000000000000000000
#07612:13000000130000000000001300000000
#07616:00000000000000000013000000001300
#07617:00000000000000000000001300000000
#0061b:1300001313001300
#00618:00000013000000000000000000001300
#00617:0000000000130000
#00615:00001300000000000000000000130000
#00612:00000000130000000000130000000013
#01216:00140014
#0121b:2300002323000023
#01212:2300002323000023
#01210:41
#01512:13000023
#0151b:23130023
#01515:00231300
#01518:0023
#02215:0013130013000000
#02218:00000013001300000000000000130000
#0221a:00000000000000000013000000000000
#02214:0000000000130000
#02219:00000000000000000000001300000000
#02213:00000013
#02212:0000000000000013
#0231b:13000023
#02319:00000013000000000000000000000000
#02312:0000001300002300
#02316:1300000000130000
#02314:00000013000000000000000000000000
#02317:0000001300000000
#02712:14002414
#02716:2414000024141414
#0271a:0014000000140014
#02714:0000001400000000
#02718:00000000000000140000000000000000
#02818:0013130000131300
#02815:00000013001300000013000000130000
#0281b:0000000013000013
#02812:00000000000000000000001300000000
#02810:41
#02912:13000000000013000000000000130000
#02916:00000013000000000000000000000000
#02917:1300001300001313
#0291b:00000013000000000000130000000000
#03015:0013130000131300
#03018:00000013001300000013000000130000
#03012:0000000013000013
#0301b:00000000000000000000001300000000
#0311b:13000000000013000000000000230000
#03117:00000013000000000000000000000000
#03116:1300001300002323
#03112:00000013000000000000230000000000
#03212:0000130013000013
#03218:00000000001300000000000000000000
#03215:0000001300000000
#0321b:00000000000000130000232300000000
#03217:0000000000000013
#03316:1300001300000000
#03312:00000013000000000000130000000000
#03315:00000013
#03318:0000000000000013
#0331b:0000001300000000
#0351b:1313
#03512:1313
#03518:0000001300001300
#03515:0000130000130013
#0361b:13
#03612:13
#05812:1300001300000000
#05816:0000000013000013
#0581b:00002323000000000000000000001300
#05817:0000001300000000
#05810:41
#05915:00130000
#05918:0000001300000000
#05912:0000000013000014
#0591b:0013
#0591a:0000000000000014
#06016:1414000024140000
#0601a:1400001414000000
#06012:0014001400140000
#06018:0000000000000014
#06014:00000000000000000000000000000014
#0641b:1300000000000013
#06415:00130000000000000000000000000000
#0641a:0013000000000000
#06414:00000013000000000000002400000000
#06419:00000000130000000000001300000000
#06413:00000000001300000000000000000000
#06418:0000001300000000
#06417:0013
#06412:0024
#06416:0000000000000024
#06517:00000013
#06512:00002300000000000000000000130000
#06519:0000000000000013
#06514:00000000000000000000000000000013
#0651b:00230000
#06515:00000000002300000000000000000000
#06518:0000002300000000
#0661b:1300001300000000
#06617:0000000013000013
#06612:00002323000000000000000000001300
#06616:0000001300000000
#06718:0000130000000013
#06715:00000000000013000000000000000013
#0671b:0013
#06712:0013
#07016:00130000
#0701b:13131300
#07019:00000013
#07217:00130000
#07212:13131300
#07214:00000013
#07114:00230013
#07117:13
#0711b:0023
#07119:00230000
#07116:0023
#07712:13130000
#0771b:00000013000000130000000000000000
#07715:0013001300000000
#07718:00130000001300000000000000000000
#0071b:13000000130000000000001300000013
#00715:00000013000000000000130000001300
#00712:0000001313001300
#00718:00001300000000000013000000130000
#00815:00000013000000000000000013000000
#00816:0013
#00812:1300001300130013
#0081b:00000000130000000000130000130000
#00818:00001300000000000000000000000013
#00915:13001300000000000000130000130000
#00918:00000013000000000013000000001300
#0091b:0000001313001300
#00912:00000000130000000000001300000013
#03716:00000000000000002200000000160000
#03714:00000000000000000016000000000000
#03718:00000000001600000000000022000000
#0371a:00220000
#03710:00410000
#01555:00135300
#0155b:13530013
#01558:0013
#01552:53000013
#0235b:00000013
#02357:0000006300000000
#02352:0000001300001300
#02356:13
#02359:00000013000000000000000000000000
#0015b:00000053
#00157:0000000000000023
#00252:00630000
#00256:0000002300000000
#00358:0053
#01656:00520000
#01658:00000052
#01756:00520000
#01758:00000052
#02055:00000000005300000000000000000000
#02052:13
#0205b:13
#02156:0000005300000000
#02157:13
#02154:00000013000000000000000000000000
#0215b:0000001300000000
#02258:00000000006300000000000000000000
#0045b:00530000
#00552:00630000
#0125b:1313
#01252:1313
#0135b:13
#01352:13
#0145b:1313
#01452:1313
#0245b:0053
#02552:0000005300000000
#02656:0000000054240000
#02652:1354
#0265a:0000000000240000
#0265b:13
#02752:54005454
#02756:5424000054245424
#0275a:0024000000240024
#02856:34
#02852:34
#02855:00000000005300000000000000000000
#02956:00000013000000000000000000000000
#02957:1300001300000000
#02952:0000005300000000
#03058:00000000006300000000000000000000
#03157:00000013000000000000000000000000
#03156:1300001300000000
#0315b:0000006300000000
#03252:0063
#03452:1313
#0345b:1313
#0335b:0000006300000000
#0355b:1313
#03552:1313
#0365b:13
#03652:13
#04152:0013
#0425b:1313
#04457:0054
#0445a:0000000000240000
#04452:0054
#04455:0000000000240000
#0485b:13
#04852:00130000
#05052:00003666
#05058:00005646
#05055:0000000000260026
#05458:00000000000000000000005200000000
#05453:0000000000000052
#05452:0052
#05652:0013
#05657:0013
#05659:00000000000000000000001300000000
#05654:00000000000000000000001300000000
#05656:0000000000000013
#0565b:0000000000000013
#0575b:00430000
#05752:00330000
#05852:63
#0585b:0000000000000063
#05856:0000000000000063
#05952:0013
#0595b:0013
#06056:6424000064240000
#0605a:6464
#06052:0024000000240000
#06156:6424642444000000
#06152:0024002400000000
#0615a:64644400
#0615b:00000000000000000000000000630000
#06252:0000000000000053
#0625a:0044
#06256:0000000000000044
#06258:00000000000000000000004400000000
#06352:00000000000000000000000000530000
#0645b:0000000000000063
#06452:0034
#06454:00000000000000000000003400000000
#06456:0000000000000034
#0665b:53
#06652:0000000000000053
#06657:0000000000000053
#0675b:0013
#06752:0013
#06952:00336300
#0695b:4343
#06852:00330033
#0685b:4343
#07056:00230000
#07257:00230000
#0715b:0053
#00652:00630000
#0075b:00530000
#0085b:00530000
#00952:00630000
#05152:36
#03854:22
#03852:00660000000000000000000000000000
#03758:00000000005600000000000022000000
#03756:00000000000000002200000000560000
#0375a:00220000
#03754:00000000000000000066000000000000
#001360:00130000
#001320:0000000000000000003333333333333323000000000000000000000000000000
#0013b0:00000000000000000000000013330033
#001370:0000000000000033
#0023b0:23
#002320:00000000133300332300000000000000
#002360:0000003300000000
#003380:000000000000000000000000133333333333000000000000
#0033a0:000000000000000000343434
#0043a0:24
#0043b0:00130000
#004370:0000002300000000
#005320:00130000
#005360:0000002300000000
#006320:00130000
#006360:0000002300000000
#0073b0:00130000
#007370:0000002300000000
#0083b0:00130000
#008370:0000002300000000
#009320:00130000
#009360:0000002300000000
#0103b0:13
#0103a0:00330000000000000000000000000000
#010390:0033000000000000
#010380:00000033000000000000000000000000
#010370:00230000
#010321:00130000
#010331:00000000003300000000000000000000
#010341:0000003300000000
#010351:00000000000000330000000000000000
#010361:0023
#0103b0:0013
#0103a0:00000000000000000033000000000000
#010390:0000000000330000
#010380:00000000000000000000003300000000
#010370:00000023
#010321:00000013
#010331:00000000000000000000000000330000
#010341:0000000000000033
#010351:00000000000000000000000000000033
#011361:23
#015321:13
#015351:00230000
#0153b0:00130000
#015380:0023
#015351:0013
#015321:00000023
#016361:00120000
#016351:0022
#016381:00000012
#0173a1:22
#017361:00120000
#017331:0022
#017381:00000012
#0183c1:22
#020351:00000000001300000000000000000000
#020321:0023
#021361:0000001300000000
#021321:0000000000230000
#022381:00000000001300000000000000000000
#0223b1:0023
#023371:0000001300000000
#0233b1:00000023
#0243b1:0013
#024371:00000000000000000000002300000000
#025321:1300003300000000
#025361:00000033000000000000230000000000
#026321:00001424
#026361:0000000000540000
#026360:00001424
#0263a0:0000000000540000
#027320:14240000
#027360:0054000000000000
#027361:14240000
#0273a1:0054000000000000
#027361:00001434
#0273a1:0000000000540054
#028361:24
#027320:00001434
#027360:0000000000540054
#028320:24
#028350:00000000001300000000000000000000
#028320:0023
#029320:0000001300000000
#029360:0000000000230000
#030380:00000000001300000000000000000000
#0303b0:0023
#0313b0:0000001300000000
#031370:0000000000230000
#032320:0013
#032360:00000000000000000000002300000000
#0333b0:1300003300000000
#033370:00000033000000000000230000000000
#0373a0:0000122200000000
#037380:00000000005600000000000000000000
#037360:0000000012220000
#037340:00000000000000000056000000000000
#037380:0000000000001222
#037360:00000000000000000000000000560000
#038340:1222000000000000
#038320:00560000000000000000000000000000
#0383b0:00120000
#038380:000000000000000000000000000000000000000000000000000000000000000000000000000000000000000000000000000000000000000000000000000000000000000000000000000000000000000000000000000000000000000000000000000000000000000000000000000000000000000000000000000000000000000000000000000000000000000000000000000000000000000000000000000000000000000000000000000000000000000000000000000000000000000000000000000000000000000000000000000000000000000000000000000000000000000000000000000000000000000000000000000000000000000000000000000000000000000000000000000000000000000000000000000000000000000000000000000000000000000000000000000000000000000000000000000000000000000000000000000000000000000000000000000000000000000000000000000000000000000000000000000000000000000000000000000000000000000000000000000000000000000000000000000000000000000000000000000000000000000000000000000000000000000000000000000000000000000000000000000000000000000000000000000000000000000000000000000000000000000000000000000000000000000000000000000000000000000000000000000000000000000000000000000000000000000000000000000000000000000000000000000000000000000000000000000000000000000000000000000000000000000000000000000000000000000000000000000054000000000000000000000000000000000000000000000000000000000000000000000000000000000000000000000000000000000000000000000000000000000000000000000000000000000000000000000000000000000000000000000000000000530000000000000000000000000000000000000000000000000000000000000000000000000000000000000000000000000000000000000000000000000000000000000000000000000000000000000000000000000000000000565300000000000000000000000000000000000000000000000000000000000000000000000000000000000000000000000000000000000000000000000000000000000000000000000000000000000000000000000000000000000000000000000000000000000000000000000000000000000000000000000000000000000000000000000000000000000000000000000000000000000000000000000000000000000000000000000000000000000000000000210000000000000000000000000000000000000000000000000000000000000000000000000000000000000000000000000000000000000000000000000000000000000000000000000000000000000000000000000000000000000000000000000000000000000000000000000000000000000000000000000000000000000000000000000000000000000000000000000000000000000000000000000000000000000000000000000000000000000000000000000000000000000000000000000000000000000000000000000000000000000000000000000000000000000000000000000000000000000000000000000000000000000000000000000000000000000000000000000000000000000000000000000000000000000000000000000000000000000000000000000000000000000000000000000000000000000000000000000000000000000000000000000000000000000000000000000000000000000000000000000000000000000000000000000000000000000000000000000000000000000000000000000000000000000000000000000000000000000000000000000000000000000000000000000000000000000000000000000000000000000000000000000000000000000000000000000000000000000000000000000000000000000000000000000000000000000000000000000000000000000000000000000000000000000000000000000000000000000000000000000000000000000000000000000000000000000000000000000000000000000000000000000000000000000000000000000000000000000000000000000000000000000000000000000000000000000000000000000000000000000000000000000000000000000000000000000000000000000000000000000000000000000000000000000000000000000000000000000000000000000000000000000000000000000000000000000000000000000000000000000000000000000000000000000000000000000000000000000000000000000000000000000000000000000000000000000000000000000000000000000000000000000000000000000000000000000000000000000000000000000000000000000000000000000000000000000000000000000000000000000000000000000000000000000000000000000000000000000000000000000000000000000000000000000000000000000000000000000000000000000000000000000000000000000000000000000000000000000000000000000000000000000000000000000000000000000000000000000000000000
#038331:00120000
#038341:000000000000000000000000000000000000000000000000000000000000000000000000000000000000000000000000000000000000000000000054000000000000000000000000000000000000000000000000000000000000000000000000000000000000000000000000000000000000000000000000000000000000000000000000000000000000000000000000000000000000000000000000000000000000000000000000000000000000000000000000000000000000000000000000
#038351:000000000000000000000000000000000000000000000000000000000000000000000000000000000000000000000000000000000000000000000000000000000000000000000000000000000000000000000000000000000000000000000000000000000000000000000000000000000000000000000000000000000000000000000000000000000000000000000000000000000000000000000000000000000000000000000000000000000000000000000000000000000000000000000000000000000000000000000000000000000000000000000000000000000000000000000000000000000000000000000000000000000000000000000000000000000000000000000000000000000000000000000000000000000000000000000000000000000000000000000000000000000000000000000000000000000000000000000000000000000000000000000000000000000000000000000000000000000000000000000000000000000000000000000000000000000000000000000000000000000000000000000000000000000000000000000000000000000000000000000000000000000000000000000000000000000000000000000000000000000000000000000000000000000000000000000000000000000000000000000000000000000000000000000000000000000000000000000000000000000000000000000000000000000000000000000000000000000000000000000000000000000000000000000000000000000000000000000000000000000000000000000000000000000000000000000000000000000000000000000000000000000000000000000000000000000000000000000000000000000000000000000000000000000000000000000000000000000000000000000000000000000000000000000000000000000000000000000000000000000000530000000000000000000000000000000000000000000000000000000000000000000000000000000000000000000000000000000000000000000000000000000000000000000000000000000000000000000000000000000000005300000000000000000000000000000000000000000000000000000000000000000000000000000000000000000000000000000000000000000000000000000000000000000000000000000000000000000000000000000000000000000000000000000000000000000000000000000000000000000000000000000000000000000000000000000000000000000000000000000000000000000000000000000000000000000000000000000000000000000000000000000000000000000000000000000000000000000000000000000000000000000000000000000000000000000000000000000000000000000000000000000000000000000000000000000000000000000000000000000000000000000000000000000000000000000000000000000000000000000000000000000000000000000000000000000000000000000000000000000000000000000000000000000000000000000000000000000000000000000000000000000000000000000000000000000000000000000000000000000000000000000000000000000000000000000000000000000000000000000000000000000000000000000000000000000000000000000000000000000000000000000000000000000000000000000000000000000000000000000000000000000000000000000000000000000000000000000000000000000000000000000000000000000000000000000000000000000000000000000000000000000000000000000000000000000000000000000000000000000000000000000000000000000000000000000000000000000000000000000000000000000000000000000000000000000000000000000000000000000000000000000000000000000000000000000000000000000000000000000000000000000000000000000000000000000000000000000000000000000000000000000000000000000000000000000000000000000000000000000000000000000000000000000000000000000000000000000000000000000000000000000000000000000000000000000000000000000000000000000000000000000000000000000000000000000000000000000000000000000000000000000000000000000000000000000000000000000000000000000000000000000000000000000000000000000000000000000000000000000000000000000000000000000000000000000000000000000000000000000000000000000000000000000000000000000000000000000000000000000000000000000000000000000000000000000000000000000000000000000000000000000000000000000000000000000000000000000000000000000000000000000000000000000000000000000000000000000000000000000000000000000000000000000000000000000000000000000000000000000000000000000000000000000000000000000000000000000000000000000000000000000000000000000000000000000000000000000000000000000000000000000000000000000000000000000000000000000000000000000000
#038321:0000000000000000000000000056000000000000000000000000000000000000
#038371:0021
#040361:00000013
#040351:00000000000000000000000000330000
#040341:0000000000000033
#040331:00000000000000000000000000000033
#041321:23
#0403b0:00000013
#0403a0:00000000000000000000000000330000
#040390:0000000000000033
#040380:00000000000000000000000000000033
#041370:23
#044370:00001424
#0443a0:0000000000540000
#044321:00001424
#044351:0000000000540000
#0463b1:00000000000000000000000000000000000000000000000000000000000000001300000000000053000000000000000000000000000000000000000000000000
#0463a1:00000000000000000000000000000000000000000000000000000000000000000000000000000000330000000000005300000000000000000000000000000000
#046391:00000000000000000000000000000000000000000000000000000000000000000000000000000000000000000000000033000000000000530000000000000000
#046381:00000000000000000000000000000000000000000000000000000000000000000000000000000000000000000000000000000000000000003300000000000053
#047371:23
#0473b1:0013
#047371:0000000000000000000000000000000000333333333333332300000000000000
#050381:00001626
#050351:0000000000560000
#050320:00000016
#050350:0000000000000056
#051320:26
#0513b0:0000000000000000000000000000000013333333333333330033333333333333
#051370:00000033
#0523b0:23
#053360:1333333333333333000000000000000000000000000000000000000000000000
#053320:00230000
#054320:0012
#054350:00000000000000000000002200000000
#054381:00000000000000000000001200000000
#0543b1:0000000000000022
#054330:0000000000000012
#055370:0022000000000000
#058320:13
#058360:00000023000000000000000000000000
#0583b0:0013
#058370:00000000000000000000002300000000
#058321:00000000000000000000001300000000
#058361:0000000000000033
#059321:0023000000000000
#0583b0:0000000000000013
#059370:0023000000000000
#0603a0:14240000
#060360:0054000000000000
#060361:14240000
#060321:0054000000000000
#0603a1:00001424
#060361:0000000000540000
#060360:00001424
#060320:0000000000540000
#061360:14342400
#061320:0054005400000000
#0613a1:14342400
#061361:0054005400000000
#0613b1:00000000000000000000000000130000
#062371:23
#062321:0000000000000013
#063361:0023000000000000
#063321:00000000000000000000000000130000
#064361:23
#0643b1:0000000000000013
#065371:0023000000000000
#0663b1:13
#066371:00000023000000000000000000000000
#066321:0013
#066361:00000000000000000000002300000000
#0663b0:00000000000000000000001300000000
#066370:0000000000000033
#0673b0:0023000000000000
#066321:0000000000000013
#067361:0023000000000000
#069321:0013
#070361:00530000
#071321:23
#0713b1:0013
#072371:00530000
#0733b1:23
