This file was generated by Ched 2.7.0.0.
#TITLE ""
#ARTIST ""
#DESIGNER ""
#DIFFICULTY 0
#PLAYLEVEL
#SONGID ""
#WAVE ""
#WAVEOFFSET 0
#JACKET ""
#REQUEST "ticks_per_beat 480"
#00002: 4
#BPM01: 134
#00008: 01
#TIL00: ""
#HISPEED 00
#MEASUREHS 00
#0001b:13
#00015:1313
#00012:00000000130000000000000000333333
#00018:0000130000130000
#0011b:00130000
#00118:00001313
#00115:0000000000130013
#00112:00130000
#00312:13
#00318:0013000000000000
#00315:000000000000130000000000133333333333000000000000
#0031b:0000001300000000
#01615:13001300130000000013001300000000
#01618:00130013000000001300130013000000
#01715:1313130000000000
#0171a:00130013000000000000000000000000
#01718:0000000013131300
#01713:00000000000000000013001300000000
#01415:00000013
#01418:0000140000000013
#01412:24
#01414:0000002400000000
#0141a:0024
#02115:00000013000000000000000013001300
#0211b:0000001300130000
#02118:13000000000000000000000000130000
#02112:0000000000130000
#02412:00000000003333330000000000001300
#02418:0000000000230013
#02415:00000000000000000000002300000000
#02518:0000001300001300
#02515:0000000000000013
#02512:0000001300000000
#02612:1300001313000013
#02618:0000001313000013
#02615:0000000000130000
#0261b:0000000000130000
#03418:0000001300000000
#03412:0013
#03415:0000000000000013
#0341b:13
#03919:0012120000000000
#03915:1200001212000000
#0391a:0000000000121200
#03914:0000000000000012
#04014:1212
#04018:0012001200000023
#04016:00120000
#0401a:0012
#04115:2300001300001300
#04112:0013
#04118:0000130000130013
#0421b:13
#04215:0013001300001300
#04218:0000130000000013
#04212:0013
#0431b:1313
#04315:0013000000130000
#04318:00130013
#04312:0000001300000013
#04414:001400000000000000000000
#0441a:241400140000
#04418:001400
#04412:000000240014000000000000
#04417:0000000000140000
#04715:1300000000000013
#04718:00000000000000000000000000000013
#04717:0000000000000000000000000000000000333333333333330000000000000000
#04710:41
#04812:130000000000001600260016
#04818:000000130000000000000000260000001600000016000000
#0481b:00130000
#04815:00000013000013000000000000000000
#0481f:0011
#04918:1600001300001300
#04915:0000130000000013
#0491b:0000000000130000
#04912:0013
#05215:00000000130000000013000000000000
#0521b:00001300000000000000000000130000
#05218:00000000001300000000001300000013
#05212:00000000000000130000000000000000
#05318:0000000000131300
#05315:13000000000000000000001300130000
#05518:0000130000131300
#05515:00000000000013000000001300130000
#05715:0013000000000000
#05718:00000013000000000000000000000000
#05712:00260000
#0571f:00210000
#0571b:00000000000000000000000000333333
#06815:0013000000130000
#06812:00130013
#0681b:1313
#06818:0000001300000013
#06915:00001300000000230000000000000000
#06912:00230000
#06918:0000002300000000
#0691b:2323
#07418:0013001300001300
#07412:00131300
#07415:1300000000130000
#0741b:0000000000000013
#01214:0000140000000024
#01218:0000002400001400
#0121a:24
#01212:0024
#01210:41
#01314:00140000
#01315:0000000000130000
#0131b:0000000000000013
#01312:0023
#0131a:24
#01318:0000002400002300
#02915:00000013000000000000000013001300
#02918:00000000000013000000000000130000
#02912:1300000000130000
#0291b:0000000000130000
#0351b:1313
#03518:0000001300000000
#03512:0013
#03515:0000000000000013
#0361b:13
#03612:13
#03819:0000220022000012
#03814:22
#03815:00222200
#06718:0000130000000013
#06715:0000001300000000
#06712:0013
#07017:00130000
#07216:00130000
#07515:13
#0751b:00000033330033330000000000000000
#07512:00000000000000000000003300330000
#00418:0013000000130000
#00415:00131300
#0041b:0000001300000000
#00412:00000013
#0051b:13
#00515:0013000000000000
#00518:00131300
#00512:0000001300000000
#00615:0013000000130000
#00618:00131300
#00612:0000001300000000
#0061b:00000013
#00712:13
#00718:0013000000000000
#00715:00131300
#0071b:0000001300000000
#00818:0013000000130000
#00815:00131300
#0081b:0000001300000000
#00812:00000013
#0091b:13
#00915:0013000000000000
#00918:00131300
#00912:0000001300000000
#01815:0000001300130013
#01818:00001313
#0191b:1313
#01918:0013000000130000
#01915:00130013
#01912:0000001300000013
#02318:00000013000000000000000000000000
#02312:0000001300002400
#02315:13
#0231a:00000024
#02712:1300001323001300
#02715:0013000000130013
#0271b:0013000000130013
#02718:2300001323001300
#03118:00000013000000000000000023002300
#03115:00000000000013000000000000230000
#0311b:1300000000230000
#03112:0000000000230000
#0321b:00000000003333330000000000001300
#03215:0000000000230013
#03218:00000000000000000000002300000000
#03315:0000001300001300
#03318:0000000000000013
#0331b:0000001300000000
#04518:001400000000000000000000
#04512:241400240000
#04514:001400
#0451a:000000240014000000000000
#04616:14
#04615:0000000000130000
#04618:00000013
#0461b:0000000000000013
#0541b:13000000000000000000001300000000
#05415:0013000000000000
#05418:0000130013000013
#05412:0000001300000000
#05612:1324
#05618:0013000000000000
#05615:00130000
#0561b:0000001300000000
#05616:00000000000000000000002400000000
#0561a:0000000000000024
#0581b:0000001300000013
#05815:0023001300000013
#05818:00000023000000000000000000000000
#05810:41
#05915:0000130000000013
#05918:0000001300000000
#0591b:0000000013000013
#06015:1300001323000013
#0601b:1300001313000013
#06018:0013000000130000
#06012:0013000000130000
#06112:0013001300000000
#06115:23130000
#06118:0013001300000000
#0611b:23000000130000000000003333000000
#06315:00001300001300000000000000000000
#06318:0000131300000000
#06312:00000000000000000000003333000000
#06612:0000001300000013
#06618:0023001300000013
#06615:00000023000000000000000000000000
#07615:0013001300001300
#0761b:00131300
#07618:1300000000130000
#07612:0000000000000013
#00212:2323000023230000
#0021b:2323000023230000
#01512:23000023
#01515:00230000
#01518:0023
#0151b:00000023
#02018:26
#02012:00000033330000000033333333330000
#02010:41
#0501b:0023
#05012:00333333000000000000000026000000
#05018:00000000003333330000000000000000
#06515:0000232300000000
#06518:00000000002300000000000000000000
#0651b:0023000000000000
#06512:00000000000000000000000000333333
#07112:0023
#07119:00230000
#07114:00230000
#0371a:00220000
#03716:0022
#03718:00000022
#03710:00410000
#05118:26
#05112:00000000000000000034343400343434
#06219:0000000024000024
#06213:00000000000000000000002400000000
#06212:00333300333300000000000000000000
#06413:0000000024000024
#06419:00000000000000000000002400000000
#0641b:00333300333300000000000000000000
#01118:00333333003333330000000000000000
#01112:00333333003333330000000000000000
#0221b:00000033330000000033333333330000
#02812:00000033330000000000000000000000
#0281b:00000000000000000033330033330000
#02810:41
#0301b:00000033330000000000000000000000
#03012:00000000000000000033330033330000
#07312:00333333333333330000000000000000
#0731b:00000000000000000000003300330000
#0771b:00333333000000000000000000000000
#07714:00000000003300000000000000000000
#07713:0000003300000000
#01555:00130000
#01552:13000013
#01558:0013
#0155b:00000013
#00355:0063
#0125a:14
#01252:0014
#0145a:0014
#01452:14
#02058:16
#02158:13
#02155:00000013000000000000000000000000
#0215b:0000001300000000
#02652:1353
#02658:0053
#0265b:0000000000230000
#02655:0000000000230000
#02955:00000013000000000000000000000000
#02958:0000001300000000
#02952:13
#03452:0013
#0345b:13
#0355b:1313
#03552:0013
#0365b:13
#03652:13
#04152:0013
#0425b:13
#04252:0013
#0445a:0064
#04457:0000000000240000
#0505b:0043
#05052:00000036
#05652:0014
#05656:00000000000000000000001400000000
#0565a:0000000000000014
#05752:00360000
#0695b:4353
#06952:00330000
#06852:00330033
#0685b:4343
#07057:00230000
#07256:00230000
#07152:0063
#00558:0053
#00755:0063
#00958:0053
#0135a:14
#01758:00000053
#02358:00000013000000000000000000000000
#02352:0000001300001400
#02355:13
#0235a:00000014
#02552:0000006300000000
#02558:0000006300000000
#02752:53005353
#02755:0023000000230023
#0275b:0023000000230023
#02758:53005353
#02858:33
#02852:33
#03158:00000013000000000000000000000000
#03155:0000001300000000
#0315b:13
#0335b:0000005300000000
#03355:0000005300000000
#04552:0054
#04656:24
#04755:53
#05158:46
#05355:53
#05458:0000000053000053
#0545b:00000000000000000000005300000000
#0595b:0013
#0585b:0000000000000053
#05855:0000000000000053
#06055:6363
#0605b:6363
#06058:0023000000230000
#06052:0023000000230000
#06152:0023002300000000
#06155:63634300
#06158:0023002300000000
#0615b:63634300
#06259:0000000014000014
#06253:00000000000000000000001400000000
#06453:0000000014000014
#06459:00000000000000000000001400000000
#06752:0013
#06652:0000000000000063
#06658:0000000000000063
#000320:00000000000000000000000013333333
#001360:23
#003350:000000000000000000000000133333333333000000000000
#003320:000000000000000000343434
#004320:24
#005380:0013
#0053b0:00000023
#007350:0013
#007320:00000023
#009380:0013
#0093b0:00000023
#010320:13
#010330:00330000000000000000000000000000
#010340:0033000000000000
#010350:00000033000000000000000000000000
#010360:00230000
#0103b0:0013
#0103a0:00000000000000000033000000000000
#010390:0000000000330000
#010380:00000000000000000000003300000000
#010370:00000023
#011380:13333333003333332300000000000000
#0113b0:00330000
#011321:13333333003333332300000000000000
#011351:00330000
#017381:00000013
#0183b1:00230000
#020321:00001333330000000033333333332300
#020361:00000000003300003300000000000000
#0223b1:00001333330000000033333333332300
#022371:00000000003300003300000000000000
#024321:00000000133333330000000000000000
#024351:0023
#0253b1:13
#025381:00000023000000000000000000000000
#025350:13
#025320:00000023000000000000000000000000
#025380:0000001300000000
#0253b0:0000000000230000
#025321:0000001300000000
#025351:0000000000230000
#026321:00001323
#026351:0000000000530000
#026380:00001323
#0263b0:0000000000530000
#027320:13230000
#027350:0053000000000000
#027381:13230000
#0273b1:0053000000000000
#027381:00001333
#0273b1:0000000000530053
#028381:23
#027320:00001333
#027350:0000000000530053
#028320:23
#028320:00001333330000000000000000000000
#028350:00000000002300000000000000000000
#0283b0:00000000000000001333330033332300
#028380:00000000000000000000003300000000
#0303b0:00001333330000000000000000000000
#030380:00000000002300000000000000000000
#030320:00000000000000001333330033332300
#030350:00000000000000000000003300000000
#0323b0:00000000133333330000000000000000
#032380:0023
#033320:13
#033350:00000023000000000000000000000000
#033381:13
#0333b1:00000023000000000000000000000000
#033351:0000001300000000
#033321:0000000000230000
#0333b0:0000001300000000
#033380:0000000000230000
#0443a0:00001424
#044370:0000000000540000
#045320:0014
#046360:54
#046320:0024
#047350:13
#047320:00230000
#0473b0:0013
#047370:0000000000000000000000000000000000333333333333332300000000000000
#050320:13333333000000000000000000000000
#050350:00230000
#050381:00000000133333330000000000000000
#0503b1:0023
#051321:00000000000000001434343400343434
#051361:00000034
#052321:24
#053351:13
#053321:00230000
#054381:0000000013000033
#0543b1:00000000000000000000003300000000
#0553b1:0023000000000000
#0573b1:00000000000000000000000013333333
#058381:23
#058321:0013
#058351:00000000000000000000002300000000
#058380:0013
#0583b0:00000000000000000000002300000000
#058350:0000000000000013
#059320:0023000000000000
#0583b1:0000000000000013
#059381:0023000000000000
#0603b1:13230000
#060381:0053000000000000
#060350:13230000
#060320:0053000000000000
#0603b0:00001323
#060380:0000000000530000
#060351:00001323
#060321:0000000000530000
#061351:13332300
#061321:0053005300000000
#0613b0:13332300
#061380:0053005300000000
#0613b0:00000000000000000000133333000000
#061380:00000000000000000000000000230000
#062320:13333300333323000000000000000000
#062350:00000033000000000000000000000000
#063320:00000000000000000000133333000000
#063350:00000000000000000000000000230000
#0643b0:13333300333323000000000000000000
#064380:00000033000000000000000000000000
#065320:00000000000000000000000013333333
#066350:23
#0663b0:0013
#066380:00000000000000000000002300000000
#066351:0013
#066321:00000000000000000000002300000000
#066381:0000000000000013
#0673b1:0023000000000000
#066320:0000000000000013
#067350:0023000000000000
#0693b0:0013
#070370:00530000
#0713b0:23
#071320:0013
#072360:00530000
#073320:33333333333333330000000000000000
#073360:0023
#0733b0:00000000000000000000133300332300
#073380:00000033
#0753b0:00001333330033332300000000000000
#075370:00000000003300000000000000000000
#075320:00000000000000000000133300332300
#075350:00000033
#0773b0:13333333000000000000000000000000
#077380:00230000
#077351:00130000
#077341:00000000003300000000000000000000
#077331:0000003300000000
#077321:00000000000000230000000000000000
