This file was generated by Ched 2.7.0.0.
#TITLE ""
#ARTIST ""
#DESIGNER ""
#DIFFICULTY 0
#PLAYLEVEL
#SONGID ""
#WAVE ""
#WAVEOFFSET 0
#JACKET ""
#REQUEST "ticks_per_beat 480"
#00002: 4
#BPM01: 134
#00008: 01
#TIL00: ""
#HISPEED 00
#MEASUREHS 00
#0001c:1200001200000000
#00016:00120000001200001300000012000000
#00018:0012120000000000
#00012:00000012000000000000130000120000
#0001b:0013
#00017:0000000000130000
#00019:0000000000000012
#00015:00000000000000000000000000000012
#0011c:12
#00118:00120000000000000000000013000000
#0011b:00000013000000000000130000001300
#00115:00000000000000001300001300000013
#00112:0000000000000000003333333333333300000000000000000000130000000000
#0021b:23002313
#00218:00130013001300130000230000130000
#00215:00002300000013000013001300001300
#00212:23000000130000002300000000000013
#0031b:13130000
#00318:000000130000000000130000140014001400000000000000
#00312:0000001300000000000000000000001300000000000000000000000000000000000000001c0000001400000014000000
#00315:00000013000000130000000000000000
#00314:000000000000000000000000001400140014000000000000
#0031a:000000000000000000001414
#00412:1400001313001300
#00415:00000013000000000000000000130000
#00416:0000000000130000
#00418:0013130000000013
#0041b:00000000000000000000131300000013
#0041a:14
#00512:1313
#00515:0013130000001300
#00514:00000000000000000013000000000000
#00516:0000000000130000
#00518:00000013000000000000001300000000
#00517:00000000000000000000000000130000
#00519:0000000000000013
#0051b:00000000000013000000000000000013
#0111b:13001313
#01118:00130000000000000000130000000000
#01115:00001300000000000013001300000000
#01116:0000131300000000
#01112:00000013001300130000000000001300
#01117:0000000000000013
#01616:1212120000000000
#01617:00120012000000000012001200000000
#01618:0000000012121200
#01614:0000001200000000
#0161b:0000000000000012
#01716:12120000
#01717:00121212000000000012121200000000
#01718:00001212
#01712:0000001200000000
#01812:1313
#01816:0000130000141314
#0181b:00130013
#01817:0013
#01912:1300130000001313
#01915:00130000000000000000000000000000
#01918:00001300000000000000001300000000
#0191b:13000013000000000013000013001300
#01916:00000000001300000000000000000000
#0191a:0000001300000000
#01913:00000000000000130000000000000000
#01917:0013
#01914:0000000000130000
#01318:00001300130000000013000000000013
#01315:23000013001300000000130026001300
#01312:00000000000023002300001300130000
#0131b:2300002323000000
#01412:2300002323001300
#01415:0000000000130013
#01416:00001414141400000000000000000000
#01418:00000000000000000000001300130000
#0141b:23000000000023002300000000000013
#02018:00001300000000000013160000000000
#02015:00000013000000000000001319000000
#0201b:23131300
#02012:23000000001300000000000000131c00
#02010:41
#02112:1313
#02114:00001313000000000000000000000000
#0211b:00000000001313000000130000000000
#02116:0000001300130000
#02118:0000000000001313
#02115:00000000000000000000000000130000
#02117:1313
#02119:00000013000000000000000000000000
#02415:0000130000230000
#02412:00001c00001300000000002300000000
#02416:1300001300000013
#02417:0013
#02413:00000000000000130000000000000000
#0241b:13000000000000000000000000131300
#02516:1300001300001300
#02517:00000013000000000000000000001300
#0251b:0013000000130000
#02519:00000013
#02514:0000000000000013
#02512:00000000001313000000000000000000
#0261b:13130000
#02616:00000000000014140000000000001414
#02612:13131400
#0261a:0014
#03415:00130013000013000000130013000000
#03418:16001300130000000013001300001300
#03412:1316
#0341b:0013
#03913:1200001200000012
#03915:00120000000000120000000000000012
#03917:0012000012120000
#03919:00000012000000000000001200000000
#0391b:00120012
#04013:1212120000000000
#04016:0000001200000000
#04012:0000000000000000000000000000000012000000000000000033333333333333
#0401c:0012
#04017:00120000000000000000000000000000
#04019:00000012000000120000000000000000
#0401b:00000000001200000000000023000000
#04018:00000023
#0411b:0013001300130013
#04117:13131313
#04112:00000000240000002400002400002400
#04216:13131313
#04212:00001300000013000000130000000013
#0421b:00000013
#04218:00000000000000000000000000130000
#04215:0000000000000013
#0421a:240000242400240000000000
#0431b:13000000130000001300000000130000
#04318:00001300000000130000130000001300
#04315:00000013000013000000001300000013
#04312:00131313
#04416:000014001400000014001400000000240000000000000000
#04412:2400240024000025
#0441a:24242400
#04419:0000000000000025
#04414:00000028
#04516:000000001400000014000000000000001400000014000000000000000000000000140000000000000000000000140000
#04512:24000000240000002400000000140000
#04518:00000026
#04515:0000000000000029
#0451b:0000000000230000
#0451a:24242400
#04612:2c140000001400000000000000001300
#04616:00000014000000141300000000000000
#04613:0000000000130000
#04615:0029000000001300
#04618:00260000
#0461b:0000002300000000
#0471b:0013130000000000
#04718:00000013001300000000000000000000
#04715:0000000000000000000000001300000000333333333333330000000013001300
#04712:00000000000000130000000013000000
#04714:13
#04710:41
#04818:16001313000000000000000000000000
#04812:000000160000000013000013
#04816:00000000000014142300000023000000
#04819:000000000000001300001300
#04817:000000000000000013000013
#04814:000000000000001300001300
#0481f:0011
#0481b:00002323
#0491b:1300001313000000
#04918:0013130000000000
#04915:00130013000013000000000000000000
#04912:0000130013000013
#04916:0000000000130000
#04914:00000013
#0511c:0012000000000000
#05116:00000012000000000000000000000000
#0511a:0000000000000000120000000000000000343434343434340034343434343434
#05114:00000000001200000000000000000000
#05118:0000001200000000
#05112:24000000000000120000000000000000
#05212:00001400131300001300000000000000
#05216:14001400000000140000000000000000
#05213:0000000000130000
#05214:00000013
#05215:0000000000000013
#0521b:00000000000000000000000000000013
#05217:00000000131300000014000000000000
#05218:00000000000000000000001400000000
#05219:00000000000000000000000000140000
#0551b:0000000000130000
#05518:00000000000000000000001300000000
#05515:00000013
#05512:00000000000000000000000000130000
#0551c:00120000
#05516:00120000
#05615:13000013000000000000002900000000
#05612:00130000000000002900002300002900
#05618:00001300001300000000000000000000
#0561b:0000131323000023
#05716:0014000000000000
#05714:00000018000000000000000000000000
#0571b:00000013
#05718:00000000260000000000000000130000
#05715:0000000000000013
#05712:00000000260000000000000000000013
#0571f:00210000
#06112:2400140000130000
#06118:00000000000000000000001300000000
#06115:00000013
#0611b:00000000000000000000000000130000
#0611a:24140000
#06212:13000000000013001300002400001300
#06218:00130000001300000000130013000000
#06215:00001300130000000013000000130000
#0621b:00000013000000000000001300000000
#0621a:0000000024000024
#0631b:0013000013130000
#06318:00130013
#06315:00000000001300000000001300000000
#06312:13000000000013001300000000130000
#06317:13
#06316:0013000000000000
#06818:0013000000000000
#06815:00000013000000000000000000000000
#06812:0000131400001414
#06816:00000000000000140000001400000014
#0681a:0000000014140000
#0681b:13
#0731b:23231300
#07312:00000013000000130000130000001300
#07318:00130000001300000000001300130000
#07315:0013001300001300
#07416:14001400001400140014000000001400
#0741b:00001300000000000000001300000000
#07412:13000000000014000000001300130000
#0741a:00141400
#0751b:13000000001300000000130000001300
#07515:00000013000000130000001300130000
#07512:0013000013000000
#07518:0000131300001300
#07516:13
#00612:1c000000000000000000131300000013
#00618:00000013000000000000000000130000
#0061b:0000001313001300
#00617:0000000000130000
#00615:0013130000000013
#01215:00000013001300000000130013002300
#01218:00001300130023002300001300130000
#0121b:2300000000000023
#01212:2300002323000000
#01210:41
#01512:1313
#0151b:23130023
#01517:00230023
#01516:0023
#02712:1400000000001c1c2400000014000000
#0271a:24002414
#0361b:13
#03612:13
#06715:0000000000000013
#06718:00000000000000000000000000000013
#06719:00130000
#06714:00000000000000130000000000000000
#0671b:0013
#06712:0013
#06716:00000000001300000000000000000000
#06717:0000001300000000
#0691b:00000013
#06918:00000000000000232600130000001300
#06912:00000000240000002600001300000000
#06915:00000000000023000000000000130000
#0691a:2414000000000000
#06916:24000014240000000000000000000000
#0701b:13000000130000001313000000000000
#07012:00001300000000130000000000131300
#07016:13000000000000000013000000000000
#07018:00000000001300000000000000000000
#07015:0000001300000000
#07014:00000000000000000000001300000000
#07017:0013000000000013
#07019:00000000000000000000001300000000
#0711b:13000000000000002300001300000000
#07116:13000014001400140000000000000000
#07113:0013001300000000
#07112:00002313
#07115:0000000000130013
#07118:00000000000000000000000000130013
#0711a:00230000
#0771b:13
#07715:00000013000000000000000000000000
#07717:0013000000000000
#07718:00130000
#07716:00000000001300000000000000000000
#07714:0000001300000000
#07712:00000000000000130000000000000000
#07719:00130000000000000000000000000000
#00812:1c00001300131300
#00815:00000013000000000000000000130000
#0081b:00000000130000001300000000000013
#00818:0013000000000013
#00817:00000000000000000000131300000000
#0071b:1313
#00718:0013130000001300
#00719:00000000000000000013000000000000
#00717:0000000000130000
#00715:00000013000000000000001300000000
#00716:00000000000000000000000000130000
#00714:0000000000000013
#00712:00000000000013000000000000000013
#00912:13000000130000000014000000140000
#00918:00000013000000002200000022000000
#00915:0013000000000000
#0091b:0000001300000000
#00916:00000000000000000000001400000014
#0091c:0000000000220022
#0101c:12
#0101a:00120000000000001200000000000000
#01018:00001200000000000012000000000000
#01016:00000012000000000000120000000000
#0101b:00120000
#01019:00000000001200000000000012000000
#01017:00000000000012000000000000120000
#01015:00000000000000120000000000001200
#01014:00000000000000000000001200000000
#01013:00000000000000000000000000000012
#0221b:13000000001300000000000000130000
#02215:13001300000000000013000000000000
#02218:00000013000000000000001300000000
#02212:000013001316191c
#0231b:13000000000000000013000000000000
#02319:00001313000000000000000000000000
#02312:00000000001313000000000023001c00
#02316:13
#02314:00000013000000000000000000000000
#02317:0000001300002300
#02315:0000000013130000
#0281b:0013000013000000
#02818:00000013000000000000160000000000
#02815:00130019
#02812:00000000001300000019001600131c00
#02810:41
#02912:1313
#02914:00001315000000000000000000000000
#02919:00000013000015000000000000000000
#02916:0000001300130000
#0291b:00000000001300000000130013000000
#02918:0000000000000013
#02915:15000000000000000000000000130000
#02917:0013
#0301b:13000000001300000000000000130000
#03015:13000013000000000019000000000000
#03012:001300001316191c
#03018:00000000130000000000001600000000
#0311b:1300000013230000
#03117:00000015000013000000000000000000
#03112:00000000001315000000230000002c00
#03116:1513
#03114:00000013000000000000000000000000
#03119:0013000000000000
#03115:00000023
#03118:00000000000000000000000000230000
#03218:0000130000230000
#0321b:00000000001300000000002300000000
#03217:1300001300000013
#03216:0013
#0321a:00000000000000130000000000000000
#03212:13001c00000000000000000000131300
#03317:1300001300001300
#03316:00000013000000000000000000001300
#03312:0013000000130000
#03314:00000013
#03319:0000000000000013
#0331b:00000000001313000000000000000000
#03515:00130013000013000000130000130013
#03512:13131613
#03518:16001300000000000013001300001300
#0351b:00131313
#03714:22000000001500002100000000150000
#03717:00000000000000150000000000000015
#03712:00000000000000000015000000000000
#03719:00000000000021000000001500002100
#03716:00220000210000000000000021000000
#03718:0022000000000000
#0371a:00000022000000000000000000000000
#0371b:0000000000210000
#03710:00410000
#03812:00150000000000000000000000000000
#0381b:00210012
#03819:00000000000000000000000000120000
#03817:0000000000000012
#03815:00000000000000000000000000000012
#03814:21210000
#0501b:0013000000000000
#05015:0000001300000000
#05018:0000000000140000
#05014:0000000000000014
#05017:0023
#0501a:00000024
#05012:0024
#05313:0012
#05317:00000000000000000012000012000000
#05315:0000000000120000
#05319:00000000000000000000001200000000
#05318:0033333333333333000000000000000000000000000000000000000000000000
#05414:0012
#05416:00000000000000000012000000000000
#05418:0000000000120012
#0541a:00000000000000000000001200000000
#05415:12
#05419:00120000120000000000000000000000
#05417:0012000000000000
#0541b:00000012000000000000000000000000
#05412:0000000000000012
#0581b:13000000000013001300000000131300
#05816:00000000001313000000001300000000
#05817:0000000000000013
#05818:00000000000000000013000000000000
#05815:0000000000130000
#05812:00002323000000000000001300000000
#05810:41
#05914:00130000
#05919:00000000000000130000000000000000
#05912:00001313
#05916:00000000000013000000000000001414
#0591b:00001313
#05917:00000000001300000000000000000000
#0601a:1414
#06016:00000000000014140000000000000000
#06012:14000000000000002400000000001c1c
#0641b:1300001313000013
#06415:00130000001300000000130013000000
#06418:00001300130000000013000000130000
#06412:00000013000000002400001300002400
#0641a:00000000000000000000002400000000
#0651b:13000000000023001300000000000013
#06516:13
#06512:0023000013001300
#06515:00000000230000000000000000130000
#06518:00000000002300000000000000001300
#06517:0023000000000000
#06612:13000000000013001300000000131300
#06617:00000000001313000000001300000000
#06616:0000000000000013
#06615:00000000000000000013000000000000
#06618:0000000000130000
#0661b:00002323000000000000001300000000
#07212:13000000130000001313000000130000
#07218:00001300000013000000001313001300
#0721b:00000013000000130000000000000000
#07215:00130000001300000000000000000013
#07217:00000000000000000013000000000000
#07616:14001400001400140014000000001400
#07612:00001300140000001400001300000000
#0761b:13000000000000000000001300130000
#0761a:0000001400000000
#01557:00130013
#0155b:13530013
#01556:0013
#01552:5353
#01656:00520000
#01658:00000052
#01654:0000002200000000
#0165b:0000000000000022
#01756:00520000
#01758:00000052
#01752:0000002200000000
#02052:13000000005300000000000000000000
#0205b:13
#00458:00530000
#0125b:13
#01252:1313
#01258:0013
#0135b:13
#01355:13
#0145b:1313
#01452:1313
#02457:0053
#02652:1354
#0265b:13
#0265a:0054
#02157:13
#02154:00000013000000000000000000000000
#0215b:0000001300000000
#02156:0000000000530000
#0365b:13
#03652:13
#04256:1313
#04858:16
#04852:00160000
#05758:00460000
#05752:00360000
#0615b:00000000000000000000000000630000
#0615a:54644400
#06152:64643400
#06852:00330034
#0685b:43
#0685a:0044
#0695a:44
#06958:0046
#06956:44340000
#06952:00343600
#0625a:0000000044000044
#06252:00000000000000000000003400000000
#00555:00630000
#00655:00630000
#00758:00530000
#0085b:00530000
#00952:00630000
#01856:0000000000140014
#0225b:00000000006300000000000000000000
#02359:00000013000000000000000000000000
#02352:0000001300003300
#02356:13
#02357:0000005300003300
#0235b:00000000000000000023000000000000
#02752:64006454
#0275a:54005454
#02852:34000000005300000000000000000000
#0285a:44
#02552:0000005300000000
#02954:00000015000000000000000000000000
#02959:0000001500000000
#02956:0000000000530000
#02955:15
#0305b:00000000006300000000000000000000
#03157:00000015000000000000000000000000
#03152:0000001500000000
#03156:15
#03256:0063
#03458:16
#03452:0016
#0335b:0000006300000000
#03558:16
#03552:0016
#03756:00210021
#03754:00000000005500002100000000550000
#03757:00000000000000650000000000000065
#03759:00000000000021000000006500002100
#03752:00000000000000000055000000000000
#0375b:0000000000210000
#03852:00550000000000000000000000000000
#03854:21
#04157:0013
#04552:0034
#0455a:0044
#04759:43
#05057:0033
#05052:00005434
#0505a:00000054
#05058:0000000000240000
#05054:0000000000000024
#0515a:44
#05152:34
#05256:00000000000000140000000000000000
#05257:00000000000000000014000000000000
#05258:00000000000000000000001400000000
#05259:00000000000000000000000000140000
#05452:0000000000000052
#0555c:00520000
#05556:00520000
#05652:00000000000000003900003300003900
#0565b:0000000043000043
#05655:00000000000000000000004900000000
#0585b:6300000000000063
#05857:0000000000000053
#05852:00000000000000000000005300000000
#05952:0013
#0595b:0013
#0605a:6454
#06052:6464
#06352:00000000000000000000000000530000
#06452:0000000034000034
#0645a:00000000000000000000004400000000
#06652:5300000000000053
#06656:0000000000000063
#0665b:00000000000000000000005300000000
#0675b:0013
#06752:0013
#001380:00130000
#001320:0000000000000000003333333333333323000000000000000000000000000000
#004380:00130000
#0043b0:0000002300000000
#005350:00130000
#005320:0000002300000000
#006350:00130000
#006320:0000002300000000
#007380:00130000
#0073b0:0000002300000000
#0083b0:00130000
#008360:0000002300000000
#009320:00130000
#009370:0000002300000000
#015320:13
#015370:00230000
#0153b1:00130000
#015361:0023
#015320:0013
#015370:00000023
#016360:00122200
#016340:0000005200000000
#016380:00000012
#0163b0:0000000000000052
#017380:22
#017360:00122200
#017320:0000005200000000
#017380:00000012
#0183c0:22
#020320:00000000001300000000000000000000
#020380:0023
#021360:0000000000130000
#021320:00000023
#0223b0:00000000001300000000000000000000
#022350:0023
#023370:0000001300002300
#0233b0:00000000000000000053000000000000
#024370:0013
#0243b0:00000000000000000000002300000000
#025320:13
#025370:0023000000000000
#0253b0:00000013000000000000000000000000
#025360:00000000002300000000000000000000
#025320:0000001300000000
#025370:0000000000230000
#026320:0014
#0263a0:00000024
#0263a1:0014
#026321:00000024
#0273a1:14
#027321:00240000
#027320:14
#0273a0:00240000
#027320:0014
#0273a0:00000034
#028320:24
#0273a1:0014
#027321:00000034
#0283a1:24
#028321:00000000001300000000000000000000
#028381:0023
#029361:0000000000130000
#029321:00000023
#0303b1:00000000001300000000000000000000
#030351:0023
#032361:0013
#032321:00000000000000000000002300000000
#0333b1:13
#033361:0023000000000000
#033321:00000013000000000000000000000000
#033371:00000000002300000000000000000000
#0333b1:0000001300000000
#033361:0000000000230000
#037361:0000112100000000
#037341:00000000005500000000000000000000
#037390:0000001121000000
#037370:00000000000000550000000000000000
#037341:0000000011210000
#037321:00000000000000000055000000000000
#0373b0:0000000000112100
#037390:00000000000000000000005500000000
#037361:0000000000001121
#037341:00000000000000000000000000550000
#037390:0000000000000011
#037370:00000000000000000000000000000055
#038390:21
#038341:1121000000000000
#038321:00550000000000000000000000000000
#0383b1:00112100
#0383a1:000000000000000000000000000000000000000000000000000000000000000000000000000000000000000000000000000000000000000000000000000000000000000000000000000000000000000000000000000000000000000000000000000000000000000000000000000000000000000000000000000000000000000000000000000000000000000000000000000000000000000000000000000000000000000000000000000000000000000000000000000000000000000000000000000000000000000000000000000000000000000000000000000000000000000000000000000000000000000000000000000000000000000000000000000000000000000000000000000000000000000000000000000000000000000000000000000000000000000000000000000000000000000000000000000000000000000000000000000000000000000000000000000000000000000000000000000000000000000000000000000000000000000000000000000000000000000000000000000000000000000000000000000000000000000000000000000000000000000000000000000000000000000000000000000000000000000000000000000000000000000000000000000000000000000000000000000000000000000000000000000000000000000000000000000000000000000000000000000000000000000000000000000000000000000000000000000000000000000000000000000000000000000000000000000000000000000000000000000000000000000000000000000000000000000000000000000000000000000000000053000000000000000000000000000000000000000000000000000000000000000000000000000000000000000000000000000000000000000000000000000000000000000000000000000000000000000000000000000000000000000000000000000000000000000000000000000000000000000000000000530000000000000000000000000000000000000000000000000000000000000000000000000000000000000000000000000000000000000000000000000000000000000000000000000000000000000000000000000000000000000000000000000000000000000000000000000000000000000000000000005300000000000000000000000000000000000000000000000000000000000000000000000000000000000000000000000000000000000000000000000000000000000000000000000000000000000000000000000000000000000000000000000000000000000000000000000000000000000000000000000000000000000000000000000000000000000000000000000000000000000000000000000000000000000000000000000000000000000000000000000000000000000000000000000000000000000000000000000000000000000000000000000000000000000000000000000000000000000000000000000000000000000000000000000000000000000000000000000000000000000000000000000000000000000000000000000000000000000000000000000000000000000000000000000000000000000000000000000000000000000000000000000000000000000000000000000000000000000000000000000000000000000000000000000000000000000000000000000000000000000000000000000000000000000000000000000000000000000000000000000000000000000000000000000000000000000000000000000000000000000000000000000000000000000000000000000000000000000000000000000000000000000000000000000000000000000000000000000000000000000000000000000000000000000000000000000000000000000000000000000000000000000000000000000000000000000000000000000000000000000000000000000000000000000000000000000000000000000000000000000000000000000000000000000000000000000000000000000000000000000000000000000000000000000000000000000000000000000000000000000000000000000000000000000000000000000000000000000000000000000000000000000000000000000000000000000000000000000000000000000000000000000000000000000000000000000000000000000000000000000000000000000000000000000000000000000000000000000000000000000000000000000000000000000000000000000000000000000000000000000000000000000000000000000000000000000000000000000000000000000000000000000000000000000000000000000000000000000000000000000000000000000000000000000000000000000000000000000000000000000000000000000000000000000000000000000000000000000000000000000000000000000000000000000000000000000000000000000000000000000000000000000000000000000000000000000000000000000000000000000000000000000000000000000000000000000000000000000000000000000000000000000000000000000000000000000000000000000000000000000000000000000000000000000000000000000000000000000000000000
#038391:00000000005500550000000000000000
#038340:00112100
#038330:000000000000000000000000000000000000000000000000000000000000000000000000000000000000000000000000000000000000000000000000000000000000000000000000000000000000000000000000000000000000000000000000000000000000000000000000000000000000000000000000000000000000000000000000000000000000000000000000000000000000000000000000000000000000000000000000000000000000000000000000000000000000000000000000000000000000000000000000000000000000000000000000000000000000000000000000000000000000000000000000000000000000000000000000000000000000000000000000000000000000000000000000000000000000000000000000000000000000000000000000000000000000000000000000000000000000000000000000000000000000000000000000000000000000000000000000000000000000000000000000000000000000000000000000000000000000000000000000000000000000000000000000000000000000000000000000000000000000000000000000000000000000000000000000000000000000000000000000000000000000000000000000000000000000000000000000000000000000000000000000000000000000000000000000000000000000000000000000000000000000000000000000000000000000000000000000000000000000000000000000000000000000000000000000000000000000000000000000000000000000000000000000000000000000000000000000000000000000000000000053000000000000000000000000000000000000000000000000000000000000000000000000000000000000000000000000000000000000000000000000000000000000000000000000000000000000000000000000000000000000000000000000000000000000000000000000000000000000000000000000530000000000000000000000000000000000000000000000000000000000000000000000000000000000000000000000000000000000000000000000000000000000000000000000000000000000000000000000000000000000000000000000000000000000000000000000000000000000000000000000005300000000000000000000000000000000000000000000000000000000000000000000000000000000000000000000000000000000000000000000000000000000000000000000000000000000000000000000000000000000000000000000000000000000000000000000000000000000000000000000000000000000000000000000000000000000000000000000000000000000000000000000000000000000000000000000000000000000000000000000000000000000000000000000000000000000000000000000000000000000000000000000000000000000000000000000000000000000000000000000000000000000000000000000000000000000000000000000000000000000000000000000000000000000000000000000000000000000000000000000000000000000000000000000000000000000000000000000000000000000000000000000000000000000000000000000000000000000000000000000000000000000000000000000000000000000000000000000000000000000000000000000000000000000000000000000000000000000000000000000000000000000000000000000000000000000000000000000000000000000000000000000000000000000000000000000000000000000000000000000000000000000000000000000000000000000000000000000000000000000000000000000000000000000000000000000000000000000000000000000000000000000000000000000000000000000000000000000000000000000000000000000000000000000000000000000000000000000000000000000000000000000000000000000000000000000000000000000000000000000000000000000000000000000000000000000000000000000000000000000000000000000000000000000000000000000000000000000000000000000000000000000000000000000000000000000000000000000000000000000000000000000000000000000000000000000000000000000000000000000000000000000000000000000000000000000000000000000000000000000000000000000000000000000000000000000000000000000000000000000000000000000000000000000000000000000000000000000000000000000000000000000000000000000000000000000000000000000000000000000000000000000000000000000000000000000000000000000000000000000000000000000000000000000000000000000000000000000000000000000000000000000000000000000000000000000000000000000000000000000000000000000000000000000000000000000000000000000000000000000000000000000000000000000000000000000000000000000000000000000000000000000000000000000000000000000000000000000000000000000000000000000000000000000000000000000000000000000000000000000
#038320:00000000005500550000000000000000
#040380:00000013
#040320:0000000000000000000000000000000000000000000000000033333333333333
#041320:23
#0463b0:00000000000000000000000000000000000000000000000000000000000000001300000000000053000000000000000000000000000000000000000000000000
#046380:00000000000000000000000000000000000000000000000000000000000000000000000000000000330000000000005300000000000000000000000000000000
#0463a0:00000000000000000000000000000000000000000000000000000000000000000000000000000000000000000000000033000000000000530000000000000000
#046370:00000000000000000000000000000000000000000000000000000000000000000000000000000000000000000000000000000000000000003300000000000053
#047390:23
#0473b0:0013
#047350:0000000000000000000000000000000000333333333333332300000000000000
#0493b0:00000000000000000000000000000000000000000000000000000000000000000000000000000000130000530000000000000000000000000000000000000000
#049380:00000000000000000000000000000000000000000000000000000000000000000000000000000000000000003300005300000000000000000000000000000000
#0493a0:00000000000000000000000000000000000000000000000000000000000000000000000000000000000000000000000033000053000000000000000000000000
#049370:00000000000000000000000000000000000000000000000000000000000000000000000000000000000000000000000000000000330000530000000000000000
#049390:00000000000000000000000000000000000000000000000000000000000000000000000000000000000000000000000000000000000000003300005300000000
#049360:00000000000000000000000000000000000000000000000000000000000000000000000000000000000000000000000000000000000000000000000033000053
#050380:23
#050321:13000053000000000000000000000000230000000000000000000000000000000000000000000000000000000000000000000000000000000000000000000000
#050341:00000000330000530000000033000053000000000000000000000000000000000000000000000000000000000000000000000000000000000000000000000000
#050361:00000000000000003300005300000000000000000000000000000000000000000000000000000000000000000000000000000000000000000000000000000000
#050370:00000000000000000000000000000000130000530000000000000000000000002300000000000000000000000000000000000000000000000000000000000000
#050390:00000000000000000000000000000000000000003300005300000000330000530000000000000000000000000000000000000000000000000000000000000000
#0503b0:00000000000000000000000000000000000000000000000033000053000000000000000000000000000000000000000000000000000000000000000000000000
#050321:00001424
#050381:0000000000540000
#0503a0:00000014
#050340:0000000000000054
#0513a0:24
#0513a0:0000000000000000000000000000000014343434343434340034343434343434
#051320:00000034
#0523a0:24
#053380:1333333333333333000000000000000000000000000000000000000000000000
#053320:00230000
#054320:0000000000000012
#055360:00320000
#055320:0022
#0553c1:00120000
#055381:0022
#0583b1:13
#058361:00000023000000000000000000000000
#058321:00000000000000000000001300000000
#058371:00000000000000000000000000230000
#0583b1:0000000000000013
#059361:0023000000000000
#058370:0000000000000013
#059320:0023000000000000
#0603a0:14
#060320:00240000
#060321:14
#0603a1:00240000
#060321:0014
#0603a1:00000024
#0603a0:0014
#060320:00000024
#0613a0:1424
#061320:00340000
#061321:1424
#0613a1:00340000
#0613b1:00000000000000000000000000130000
#062361:23
#063321:00000000000000000000000000130000
#064371:23
#066321:13
#066371:00000023000000000000000000000000
#0663b1:00000000000000000000001300000000
#066361:00000000000000000000000000230000
#066321:0000000000000013
#067371:0023000000000000
#066360:0000000000000013
#0673b0:0023000000000000
