This file was generated by Ched 2.7.0.0.
#TITLE ""
#ARTIST ""
#DESIGNER ""
#DIFFICULTY 0
#PLAYLEVEL
#SONGID ""
#WAVE ""
#WAVEOFFSET 0
#JACKET ""
#REQUEST "ticks_per_beat 480"
#00002: 4
#BPM01: 134
#00008: 01
#TIL00: ""
#HISPEED 00
#MEASUREHS 00
#0001a:1414
#00014:00140000
#0021a:14
#00214:00140000
#00218:0014
#00212:00000014
#0031a:1414
#00312:00140000
#00414:1414
#00418:00140014
#01212:14
#01218:00140000
#01214:0014
#0121a:00000014
#01210:41
#01913:14141400
#01919:14141400
#02018:0014
#02014:00140000
#02012:00000014
#0201a:24
#02010:41
#0391a:14
#03914:00140000
#03918:0014
#03912:00000014
#04112:1414
#04118:00140014
#04214:1414
#0421a:00140014
#04312:14140000
#04318:00001414
#04414:14140000
#0441a:00001414
#0461a:0014
#04614:00000014
#0471a:0014
#04718:14
#04712:00140000
#04714:00000014
#04710:41
#04912:0014
#04918:00000014
#00112:1414
#00118:00140000
#00618:1414
#00614:00140014
#00812:1414
#00818:00140014
#0101a:1414
#01014:00140014
#01312:14
#01318:00140000
#01314:0014
#0131a:00000014
#01615:1313
#01618:00130013
#01713:1313
#0171a:00130000
#01814:0014
#01818:00000014
#02214:0014
#02218:00140000
#0221a:00000014
#02212:14
#02312:16000026
#02318:00000016000000000000000000000000
#0241a:14
#02414:0000140000140000
#02418:00001414
#02512:14
#02518:0000140000140000
#02514:00001414
#02714:0014
#02718:00000014
#02814:0014
#02818:00140000
#0281a:00000014
#02812:24
#02810:41
#03018:0014
#03014:00140000
#03012:00000014
#0301a:14
#03212:14
#03218:0000140000140000
#03214:00001414
#0331a:14
#03314:0000140000140000
#03318:00001414
#04818:14
#04812:00140000
#0481f:0011
#05014:14
#0501a:00140000
#05012:0026
#05018:00000026
#0511a:0014
#05114:00000014
#05112:26
#0521a:14
#05214:00140000
#05218:0014
#05212:00000014
#05318:14
#05315:0013
#05613:00142400
#05619:00142400
#05418:13
#05714:00000014
#0571a:0024
#0571f:00210000
#05818:14140014
#05814:0014000000000000
#05812:0014
#05810:41
#05914:14140000
#05918:0014000000000000
#06113:14140000
#06119:14140000
#06118:00000014
#06112:0024
#06214:14
#0621a:00140000
#06212:0016
#06218:00000000000000000000001600000000
#06418:1416
#06412:00000000140000000000001600000000
#06314:00000014
#0631a:0014
#06512:0014
#06518:00000014
#06614:14140014
#06618:0014000000000000
#0661a:0014
#06718:14140000
#06714:0014000000000000
#07012:00140000
#0721a:00140000
#07312:0014
#07318:00000014
#07414:14
#0741a:00140000
#07412:0014
#07418:00000014
#07514:14140000
#07518:0014001400000000
#07512:00001414
#07618:14140000
#07614:00001414
#02118:16
#02112:00000016000000000000000000000000
#02912:16
#02918:00000016000000000000000000000000
#03118:16
#03112:00000016000000000000000000000000
#03815:23
#0381a:00230000
#03813:0023
#0451a:24
#04512:24
#03718:00230023
#03715:0023
#03710:00410000
#0691a:24
#06914:0024
#07118:0024
#0401a:0034343400000000
#0771a:00343434343434000000000000000000
#0035a:0014
#02352:00000016
#04554:0014
#04558:0014
#0455a:54
#04552:54
#05659:0054
#05653:0054
#0575a:00140000
#05752:00140000
#06954:0054
#07052:00240000
#0725a:00240000
#07158:0064
#005340:14
#005320:0024
#007380:14
#0073a0:0024
#009320:14
#009340:0024
#0113a0:14
#011380:0024
#014320:14240000
#014380:00001424
#015340:14240000
#0153a0:00001424
#0173a0:00000013
#0183a0:00230000
#021380:0000001600002600
#023320:0000001600002600
#0263a0:14
#026380:00240000
#026320:0014
#026340:00000024
#0273a0:14
#027380:00240000
#029320:0000001600002600
#031380:0000001600002600
#034320:14
#034340:00240000
#0343a0:0014
#034380:00000024
#035320:14
#035340:00240000
#0353a0:0014
#035380:00000024
#036340:14
#037320:24
#0403a0:1434343400000000
#040380:0024
#0453a0:14
#045380:0024
#045321:14
#045341:0024
#048381:000000000000143434343434
#049381:24
#054351:0000000013000033
#055351:00230000
#056391:0014
#0573a1:00240000
#056330:0014
#057320:00240000
#0593a0:0014
#059380:00000024
#060320:14
#060340:00240000
#0603a0:0014
#060380:00000024
#062320:0000000000000016
#063320:00260000
#064380:0000000000000016
#065380:00260000
#067320:0014
#067340:00000024
#0683a0:14
#068380:00240000
#068320:0014
#068340:00000024
#0693a0:14
#069380:00240000
#069340:0014
#070320:00540000
#071340:24
#071380:0014
#0723a0:00540000
#073380:24
#0773a0:14343434343434000000000000000000
#077380:00000000000000240000000000000000
