This file was generated by Ched 2.7.0.0.
#TITLE ""
#ARTIST ""
#DESIGNER ""
#DIFFICULTY 0
#PLAYLEVEL
#SONGID ""
#WAVE ""
#WAVEOFFSET 0
#JACKET ""
#REQUEST "ticks_per_beat 480"
#00002: 4
#BPM01: 170
#00008: 01
#TIL00: ""
#HISPEED 00
#MEASUREHS 00
#00214:14
#0011a:14
#00618:14
#00512:14
#00918:14
#00910:41
#01018:14
#01114:14
#01214:14
#0131a:14
#0141a:14
#01512:14
#01612:14
#02512:0016
#02518:26
#02510:41
#02712:16
#02718:0016
#02918:16
#02912:0016
#03118:16
#03112:0016
#04218:0016
#04412:0016
#04618:0016
#06512:0016
#06518:26
#0651f:21
#06718:16
#06712:0016
#07318:2616
#07412:1616
#07712:2616
#07818:1616
#08218:0016
#08412:0016
#08518:16
#08512:0016
#08618:16
#08612:0016
#03018:16
#03012:0016
#06618:16
#06612:0016
#06610:41
#06918:0016
#06912:26
#07112:16
#07118:0016
#07012:16
#07018:0016
#07912:16
#07918:0016
#02618:1616
#02812:1616
#03318:0016
#03312:26
#03518:16
#03512:0016
#03712:16
#03718:0016
#03912:16
#03918:0016
#03812:16
#03818:0016
#03412:1616
#03618:1616
#07612:16
#07618:0016
#0571f:11
#0571a:14
#0211a:14
#02114:0014
#02218:14
#05814:14
#05918:14
#04714:24
#04718:0024
#04814:24
#0881a:24
#07518:26
#07510:41
#08718:24
#08714:0024
#05410:41
#04110:41
#0033a0:14
#0043a0:24
#007320:14
#008320:24
#0173a0:14
#0183a0:24
#019340:14
#020340:24
#022320:0014
#023320:0034
#024320:0024
#032380:16362600
#040320:16362600
#041380:16
#042380:26
#043320:16
#044320:26
#045380:16
#046380:26
#0493a0:14
#050380:34
#051380:34
#0523a0:24
#053320:14
#054340:34
#055340:34
#056320:24
#060320:1400000000000034
#061330:0000000000000034
#062340:0000000000000034
#064340:24
#068380:16362600
#072320:16362600
#075380:16362600
#080320:16362600
#081380:16
#082380:26
#083320:16
#084320:26
