This file was generated by Ched 2.7.0.0.
#TITLE ""
#ARTIST ""
#DESIGNER ""
#DIFFICULTY 0
#PLAYLEVEL
#SONGID ""
#WAVE ""
#WAVEOFFSET 0
#JACKET ""
#REQUEST "ticks_per_beat 480"
#00002: 4
#BPM01: 170
#00008: 01
#TIL00: ""
#HISPEED 00
#MEASUREHS 00
#00012:0013
#00015:0000000000130013
#00018:00000013
#0001b:00000000000000000000000000333300
#00112:13001313
#00118:00001300001300000000130000001300
#00115:0000131300000000
#0011b:23001313
#00215:1313000000000013
#00218:00130000000013000000000000000000
#00212:00130000
#0021b:00130000
#00213:00000000000000000033003300000000
#00312:1300001300001300
#0031b:1300001300001300
#00318:0013000000130013
#00315:00131300
#00415:13000000130000000013001300000000
#00412:0013000000000000
#00418:0000001300000000
#0041b:0000000013131300
#0051b:13001313
#00515:00001300001300000000130000001300
#00518:0000131300000000
#00512:23001313
#00618:1313000000000013
#00615:00130000000013000000000000000000
#0061b:00130000
#00612:00130000
#0061a:00000000000000000033003300000000
#0071b:1300001300001300
#00712:1300001300001300
#00715:0013000000130013
#00718:00131300
#00818:13130000
#0081b:0013001300000000
#00812:0000001300001300
#00814:0000000000000013
#00916:13000013
#00914:00130000
#00912:0013
#0091b:00000013
#00910:41
#01014:13000013
#01012:00130000
#01016:0013
#0101b:0000000000130000
#01018:0000000000000013
#01112:13000013
#01116:00130000
#01114:0013
#0111b:00000013
#01216:13
#01214:00130013
#01212:0013
#0121b:0000000000130000
#01219:0013000000000013
#01217:0000001300000000
#01312:00003333130033000000000000000000
#0131b:00000000000000000000333313003300
#01316:13000013
#01318:0013
#01317:00130000
#01417:00131300
#01414:0000000000130000
#01419:00000013
#01416:0000000000000013
#01515:00130000
#01518:00000013
#01512:13
#0161b:1300001300000000
#01615:0013000013000000
#01618:00130000
#01612:00000014
#0161a:00000014
#01716:0000001400000000
#0171a:24
#01712:00240024
#0181b:0013000000130000
#01815:0000001300000013
#01818:00131313
#01812:00240024
#01916:0000001400000000
#01912:24
#0191a:00240024
#02018:0013000000230000
#02012:0000001300000013
#02015:00131313
#0201a:00240024
#02218:0000001300001300
#02215:0000000013000013
#0221b:0000000000130000
#02217:13
#02212:00130013
#02318:0013000013000000
#02315:0000001300130023
#02312:00000013
#0231b:00000013
#02515:0013130000000000
#02518:00000013000000000000000000000000
#02512:2400001313001300
#02517:0000000000000013
#0251b:0000001300000000
#0251a:24
#02510:41
#0261b:0013000000130000
#02612:0000130000130000
#02618:0000001300000013
#02615:00001313
#0271b:00130000
#02712:0000001300000000
#02715:00000013
#02718:0000000000000013
#02918:0013000013000000
#02915:00000013000000000000000013000000
#02912:1300000000000013
#0291b:1300000000130000
#03015:1300001300001300
#0301b:00130000
#03018:0013000013000013
#03012:0000000000130000
#03116:0000001300000000
#0311b:0013
#03216:13
#0321b:0013000000000000
#03214:00000000130000000000001300001300
#03219:0000001300000000
#03212:0013
#03217:00000000000000000000130023000013
#03318:0013130000000000
#03315:00000013000000000000000000000000
#0331b:0000001313001300
#03316:0000000000000013
#03312:2400001300000000
#03412:0013000000130000
#0341b:0000130000130000
#03415:0000001300000013
#03418:00001313
#03512:00130000
#0351b:0000001300000000
#03518:00000013
#03515:0000000000000013
#02818:0000000000000013
#02812:1313
#0281b:0000130000230000
#02815:00000023
#03715:0013000013000000
#03718:00000013000000000000000013000000
#0371b:1300000000000013
#03712:1300000000130000
#03818:1300001300001300
#03812:00130000
#03815:0013000013000013
#0381b:0000000000130000
#04017:13
#04012:0013000000002300
#04019:00130000
#04014:0000001300000000
#0401b:00001323
#04016:0000000000130000
#04116:13
#04112:0000001300000000
#0411b:13
#04117:0000001300000000
#04110:41
#04212:0013000013000013
#04215:00130013
#04218:0000001300130000
#0421b:0013
#04318:13000013
#04315:13000013
#0431b:0000001300000000
#04312:0000001300000000
#0441b:0013001300000000
#04412:00130000
#04416:0013
#04419:0000000000130000
#04414:00000013
#04417:0000000000000013
#04418:00130000
#0461b:0013000013000013
#04618:00130013
#04615:0000001300130000
#04612:0013
#05715:23130013
#05712:0013
#05718:23130013
#0571b:0013
#0571f:11
#05817:0000000000130000
#05812:2300000000130000
#05816:0000000000000013
#05815:0023002300000000
#05818:00230000
#0581b:0000002300000000
#05915:00131313
#05918:0000001300130000
#0591b:0013
#05917:0000000000000013
#06112:0000002300000013
#06118:00000000000000000000000000000014
#06117:0000232300000024
#06116:0000000000230000
#06114:00000023
#06212:0013001313000025
#06219:0000000000000015
#06217:1414141400000000
#06216:00140000001400000000000000000000
#06218:00000014000000140000000000000000
#06214:00000000000000000000000000000015
#06319:0015001515000000
#06313:1515151500000000
#06312:00150000001500000000000000000000
#06314:00000015000000150000000000000000
#06412:0000000000130000
#06415:00000013
#06418:0000000000000013
#06515:0013001313000000
#06518:00000013000000000000000000000000
#06512:2400130000001313
#06517:0000000000000013
#0651b:0000001313000000
#0651f:21
#0661b:0013000000130000
#06618:00131313
#06615:0000001300130013
#06612:0013
#06610:41
#06717:0000001300000013
#06712:0000001300000013
#06918:0013000013000013
#06915:00000013000000001300000013000000
#06912:1300001300000013
#0691b:13130000
#07015:0000001300000023
#07012:00130023
#07018:0013000023000000
#0701b:0000000000230000
#07115:0000001300000000
#07118:13130000
#07112:2313
#07215:00001400000000000000000023000013
#07212:0000001400130000
#07218:00000000240000000000001300001300
#0721a:24
#07216:0024
#06818:0000001300000013
#06812:13000023
#06815:0013000000000000
#06817:13
#0681b:0000130000230000
#06816:0013
#08118:00000013000000000013000000000000
#0811b:2300001300000000
#08115:00000013000000000013000000000000
#08112:2300001300000000
#0821b:0013000013000013
#08218:00130013
#08215:0000001300130000
#08212:0013000013000013
#0831b:00000013000000000013000000000000
#08318:2300001300001300
#08312:00000013000000000013000000000000
#08315:2300001300001300
#07318:0013001313000000
#07315:00000013000000000000000000000000
#0731b:0000130000001313
#07312:0000001313000000
#07316:0000000000000013
#0731a:24
#07517:00130000
#0751b:2313
#07516:0013
#07512:2300230000000014
#07510:41
#07618:1400000000000000000000000000001400000000000000000000000013000000
#07614:0000000014000000000000001400000000000000001400000000000000000000
#0761a:0000000000000000140000001400000000000000001400000000000000000000
#07619:00000000000000000014000000000000
#07612:0000000000000000000000000000001400000000000000000000000000000000
#07613:00000000000000000014000000000000
#04517:13
#0451b:0000001300000000
#04512:13
#04516:0000001300000000
#07715:0013000013000013
#07718:00000013000000001300000013000000
#0771b:1300001300000013
#07712:13130000
#07818:0000001300000023
#0781b:00130023
#07815:0013000023000000
#07812:0000000000230000
#07918:0000001300000000
#07915:13130000
#0791b:2313
#08017:0014000000000000
#0801a:0000001400000000
#0801b:0000000000131300
#08012:24000013
#08014:00240000
#08016:0024
#0861a:2414
#08618:0000000000140000
#08616:23000014
#08614:0000000000000014
#08617:00000013000000000000000000000000
#08612:00000013000000000000000000000000
#08712:14
#08718:2222
#08716:00220022
#07412:0013000000230000
#07415:00132323
#07418:0000001300230023
#0741b:0023
#08412:0014
#0841a:0024
#08418:0000002400240000
#08416:00240024
#08414:0024000000000024
#05118:13
#0511b:0013
#05312:0013
#05316:13
#04912:0000000000000013
#04916:00130000
#0491b:23
#0211b:13000000000000000000001300000000
#02117:00000013000000000000000000000000
#02112:00000013000000001300000000000000
#02116:00000000000000000000001300000000
#0361b:1313
#03612:0000130000230000
#03615:0000000000000013
#03618:00000023
#02418:00130000
#0241b:0013
#02415:0023002300000000
#02412:0023
#06018:00130000
#06015:0000001300000000
#06012:0013
#0601b:0000000013000023
#06016:0000000000002323
#03917:0000001300000000
#03912:0013
#04716:2222
#04718:00220022
#04816:22
#08818:22
#0851a:24240000
#08512:00002424
#05519:00000000000000000033333300000000
#05513:00000000000000000000000000333333
#05218:00000000003300330000000000000000
#05212:00330033000000000000000000000000
#0521b:00000000000000000000000000330033
#05215:00000000000000000033003300000000
#05410:41
#0095b:13000013
#01352:00230000
#0135b:00000023
#01356:63
#01358:0053
#01655:0013
#0175a:54
#01756:0000005400000000
#01956:0000006400000000
#01952:64
#02358:0053000000000000
#02255:0000000000000053
#02257:53
#02952:0000000000000063
#02958:0063
#0295b:0000000000230000
#03055:23
#0375b:0000000000000053
#03755:0053
#03752:0000000000230000
#03858:23
#04057:13
#04059:00130000
#0405b:0013
#03256:13
#03252:0013
#03254:00130000
#04156:53000013
#04152:0000005300000000
#0415b:53000013
#04157:0000005300000000
#04358:63000063
#04355:53000053
#0435b:0000006300000013
#04352:0000005300000013
#06056:0000000000000053
#06952:0000000000000063
#06958:0063
#08158:00000023000000000023000000000000
#0815b:6300005300004300
#08155:00000023000000000023000000000000
#08152:5300006300003300
#0835b:00000023000000000023000000001300
#08358:6300006300006300
#08352:00000023000000000023000000001300
#08355:5300005300005300
#06552:1400000000000023
#0655b:0023
#06852:63000013
#06855:0023000000000000
#0685b:0000530000130000
#06858:0000002300000000
#07352:0023
#0735b:0000000000000023
#0735a:14
#0755b:6363
#07556:0063
#07552:00630000
#07557:00630000
#0765a:0000000000000000000000005400000000000000002400000000000000000000
#07658:0000000000000000000000000000002400000000000000000000000000000000
#07659:00000000000000000054000000000000
#07654:0000000000000000000000005400000000000000002400000000000000000000
#07652:0000000000000000000000000000002400000000000000000000000000000000
#07653:00000000000000000054000000000000
#04557:63000013
#0455b:0000006300000000
#04552:63000013
#04556:0000006300000000
#05758:13530053
#0575b:0053
#05755:13
#0775b:0000000000000053
#07755:0053
#0855a:14140000
#08552:00001414
#0285b:0000530000130000
#02852:53
#02855:00000013
#06157:0000005300000054
#06158:00000000000000000000000000000024
#06257:5454545400000000
#06256:00240000002400000000000000000000
#06258:00000024000000240000000000000000
#06254:00000000000000000000000000000025
#06252:0000000000000055
#06353:5555555500000000
#06352:00250000002500000000000000000000
#06354:00000025000000250000000000000000
#0725a:14
#07258:00140000
#07256:0014
#08052:14000013
#08054:00140000
#08056:0014
#0805b:00000013
#08652:00000063000000000000000000000000
#08657:00000063000000000000000000000000
#0865a:14
#08656:63
#05158:53
#0515b:0023
#05352:0023
#05356:53
#04952:0000000000000023
#04956:00530000
#0495b:13
#0045b:00000053
#0015b:13
#00152:00000013
#0255a:14
#02552:14
#03352:14
#00058:00000063
#0115b:00000013
#0215b:53000000000000000000005300000000
#02157:00000063000000000000000000000000
#02152:00000063000000006300000000000000
#02156:00000000000000000000005300000000
#05856:0000000000000053
#08858:12
#0365b:63
#03652:0000630000130000
#03658:00000013
#05957:0000000000000063
#0055b:00000013
#00552:13
#000380:00000013
#0003b0:00000000000000000000000000333300
#0013b0:23
#002350:00001323
#002330:00000000000000000033003300000000
#002320:0000000000330000
#002381:0000000000001323
#0043b1:00000013
#004381:0000000000000023
#006381:00001323
#0063a1:00000000000000000033003300000000
#0063b1:0000000000330000
#006350:0000000000001323
#008370:0000000000130000
#0083b0:00000033
#0093b0:23
#009380:0000001323000000
#010380:0013230000000000
#0113b0:13230000
#011380:0000001300230000
#013360:13
#013320:00003333530033000000000000000000
#013350:0023
#013381:0013
#0133b1:00000000000000000000333353003300
#014371:23
#014340:13230000
#0153b0:13
#015380:0023
#015351:0013
#016321:23
#0173a1:14000024
#017361:0000003400000000
#019321:14000024
#019361:0000003400000000
#0213b1:1300002300000000
#021371:00000033000000000000000000000000
#021320:00000013000000000000000000000000
#021360:0000002300000000
#021320:0000000013000023
#021360:00000000000000000000003300000000
#0213b1:00000000000000000000001300000000
#021371:0000000000000023
#022371:13
#0223b1:00230000
#022351:0000000000000013
#023321:0023000000000000
#023380:0013000000000000
#0233b0:0000002300000000
#023380:0000000000000013
#024380:0023000000000000
#0253b0:0013
#025370:00000023
#025320:0000000000000013
#026360:0023000000000000
#027320:13
#027360:00230000
#027370:0013
#0273b0:00000023
#028320:13
#028350:0053230000000000
#0283b1:00130000
#028381:0000005323000000
#0293b1:00130000
#029381:0000002300000000
#029350:0000001300000000
#029320:0023
#029381:00001323
#0293b1:0000000000530000
#029321:0000000000000013
#030351:53
#030321:0023000000000000
#0313b1:13230000
#031320:13230000
#031360:0013
#031320:00000023
#031371:00000013
#0323b1:23
#033321:0013
#033361:00000023
#0333b1:0000000000000013
#034371:0023000000000000
#0353b1:13
#035371:00230000
#035361:0013
#035321:00000023
#0363b1:13
#036381:0053230000000000
#036320:00130000
#036350:0000005323000000
#037320:00130000
#037350:0000002300000000
#037381:0000001300000000
#0373b1:0023
#037350:00001323
#037320:0000000000530000
#0373b0:0000000000000013
#038380:53
#0383b0:0023000000000000
#039320:13230000
#0393b1:13230000
#039371:0013
#0393b1:00000023
#039360:00000013
#040320:23
#041360:13000000000000000053000023000000
#041320:00000053000033000000000000000000
#0413b1:13000000000000000053000023000000
#041371:00000053000033000000000000000000
#043381:13000000000000000053000033000000
#0433b1:00000053000033000000000000002300
#043350:13000000000000000053000033000000
#043320:00000053000033000000000000002300
#045370:13000000000000000053000023000000
#0453b0:00000053000033000000000000000000
#045321:13000000000000000053000023000000
#045361:00000053000033000000000000000000
#0483b1:0013
#048391:0000000000330033
#048371:00000033
#0493b1:23
#049361:00130000
#049321:0000000000000053
#050361:0023
#0503b0:0000000013000033
#050380:00000000000000000000003300000000
#051380:33
#0513b0:0053
#052370:23
#052321:13330033230000000000000000000000
#052351:0033000000000000
#052380:00000000133300332300000000000000
#0523b0:0000003300000000
#052351:00000000000000001333003323000000
#052321:0000000000330000
#0523b0:00000000000000000000000013330033
#052380:0000000000000033
#0533b0:23
#053361:13
#053321:0053
#054361:23
#0543b0:13
#054370:00000033535323000000000000000000
#054380:0000000000000053005300530000000000000000000000000000000000000000
#054321:00000013535323000000000000000000
#054331:0000000000000053005300530000000000000000000000000000000000000000
#054321:0013
#054361:00000000000000000000003353532300
#054351:0000000000000000000000000000000000000000000000530053005300000000
#0543b0:00000000000000000000001353532300
#0543a0:0000000000000000000000000000000000000000000000530053005300000000
#055320:00001353535353532300000000000000
#055330:0000000000530053005300530053005300000000000000000000000000000000
#0553b1:0013
#055391:00000000000000000033333300000000
#055381:00000023
#055350:00000013
#055330:00000000000000000000000000333333
#056320:23
#056381:13000033000000000000000000000000
#0563b1:0000000000000000005300002300000000000000000000000000000000000000
#056350:00000013000000000000000000000000
#056320:0000000000000000005300002300000000000000000000000000000000000000
#056350:00000000000000001353535353535353
#056340:0000000000000000000000000000000000530053005300530053005300530053
#057350:23
#056381:00000000000000001353535353535353
#056391:0000000000000000000000000000000000530053005300530053005300530053
#057381:23
#057381:00130033
#0573b1:0033
#0583b1:23
#058361:0000000000000013
#059321:0023000000000000
#0583b0:0000000000000013
#0593b0:0023000000000000
#059370:0000000000000013
#0603b0:0023000000000000
#059321:0000000000000013
#060321:0023000000000000
#060361:0000000000000013
#061321:00230000
#061371:0000001300000000
#0613b1:00000023
#061371:0000000000000014
#061381:00000000000000000000000000000054
#062371:5454545424000000
#062361:00540000005400000000000000000000
#062381:00000054000000540000000000000000
#062321:0000000000000015
#062341:00000000000000000000000000000055
#063331:5555555500000000
#063321:00550000005500002500000000000000
#063341:00000055000000550000000000000000
#0653b1:1323000000000000
#0653b1:0013
#065371:00000023
#065321:0000000000000013
#066361:0023000000000000
#067321:13
#067361:00230000
#067370:13
#0673b0:00230000
#067370:0013
#0673b0:00000023
#067321:0013
#067361:00000023
#068321:13230000
#068351:0053000000000000
#0683b0:00132300
#068380:0000005300000000
#069380:0013
#0693b0:00000023
#069320:0000000000000013
#070350:0023000000000000
#0703b0:0000132300000000
#070350:0000000013230000
#0703b0:0000000000001323
#071320:13230000
#0713b0:0013
#071380:00000023
#071351:00000013
#072321:23
#073321:1323000000000000
#073321:0013
#073361:00000023
#0733b1:0000000000000013
#074371:0023000000000000
#0753b1:1333
#075371:00330023
#075320:00130023
#075360:0033
#0763a0:0000000000000000000000001400000000000000005400000000000000000000
#076380:0000000000000000000000000000005400000000000000002400000000000000
#076390:00000000000000000054000000000000
#076341:0000000000000000000000001400000000000000005400000000000000000000
#076321:0000000000000000000000000000005400000000000000002400000000000000
#076331:00000000000000000054000000000000
#077351:0013
#077321:00000023
#0773b1:0000000000000013
#078381:0023000000000000
#078321:0000132300000000
#078381:0000000013230000
#078321:0000000000001323
#0793b1:13230000
#079321:0013
#079351:00000023
#079380:00000013
#0803b0:23
#0813b0:1300003300002300
#081380:00000053000000000053000000000000
#081321:1300003300002300
#081351:00000053000000000053000000000000
#083381:1300003300003300
#0833b1:00000053000000000053000000002300
#083350:1300003300003300
#083320:00000053000000000053000000002300
#085320:1424
#085360:00340000
#0853a1:0014
#085361:00000034
#0863a1:24
#086360:1300002300000000
#086320:00000033000000000000000000000000
#086371:00000013000000000000000000000000
#0863b1:0000002300000000
