This file was generated by Ched 2.7.0.0.
#TITLE ""
#ARTIST ""
#DESIGNER ""
#DIFFICULTY 0
#PLAYLEVEL
#SONGID ""
#WAVE ""
#WAVEOFFSET 0
#JACKET ""
#REQUEST "ticks_per_beat 480"
#00002: 4
#BPM01: 170
#00008: 01
#TIL00: ""
#HISPEED 00
#MEASUREHS 00
#0571f:11
#0571b:00130000
#05718:0013
#05715:23
#08118:00000000000000000013000000000000
#0811b:0000001300000000
#08115:00000000000000000013000000000000
#08112:0000001300000000
#08119:23
#08114:23
#00818:1300001300000013
#0081b:0013000000000000
#00815:00130013
#00812:0000000000130000
#00718:0013000013000000
#00715:0000130000130013
#00712:13000013
#0071b:0000001300000000
#00618:1300001300001300
#0061b:0000000000130000
#00615:0000000013000013
#00612:0013000000000000
#0051b:0000001300001300
#00515:0000130000000013
#00512:2300000000130000
#00518:0013000000000000
#00315:0013000013000000
#00318:0000130000130013
#0031b:13000013
#00312:0000001300000000
#01312:00000000001333000000000000000000
#01314:0033000013000033
#01316:13000000000000000000331300000000
#01317:00000000001333000000000000000000
#01319:0033000013000033
#0131b:13000000000000000000331300000000
#01318:00000033000000000000000000000000
#01313:00000033000000000000000000000000
#06314:00000016000000160000000000000000
#06313:1616161600000000
#06312:00160000001600000000000000000000
#06214:00000000000000000000000000000016
#06217:00000015000000150000000000000000
#06218:1515151500000000
#06219:00150000001500000000000000000000
#06213:0000000000000026
#07617:00000000000000000013000000000000
#0761b:0000001300000000
#07615:1300130000000013
#07618:0013000000000000
#08312:2300001300000000
#08315:00000013000000000000000000000000
#0831b:2300001300000000
#08318:00000013000000000000000000000000
#07512:0000000000000013
#07517:00130000
#0751b:23
#07510:41
#07712:0013000000000013
#07715:0000001300000000
#07718:00130000
#0771b:1313
#0801a:0000001400000000
#08018:0014000000000000
#08016:0024
#08014:00240000
#08012:24
#07915:0000001300000000
#0791b:23
#0781b:00130000
#07818:0000001300000023
#07815:00002323
#07812:0000000000230000
#07312:0013000000000013
#0731b:0013
#07318:0000001300000000
#07315:00130000
#0731a:24
#07215:0000000000000013
#07212:0000001400000000
#07214:0014000000000000
#07216:0024
#07218:00240000
#0721a:24
#0691b:0013000000000013
#06918:0000001300000000
#06915:00130000
#06912:1313
#06812:00130000
#06815:13000023
#06818:0000000000230013
#0651b:0013000000000013
#06512:2413
#06515:0000001300000000
#06518:00130000
#0651f:21
#06418:0000000000130013
#06415:00000013
#06117:00000000000000000000000000000015
#0611b:0000002300000000
#06118:0000000000000025
#06115:00000023
#05918:0013
#05915:0000001300000013
#0591b:00130013
#05912:0000000000130000
#05812:0000230000130000
#05815:2300000000000013
#05818:0000002300000000
#0581b:0023000000000000
#04818:00000013
#04815:2300000000130000
#04812:0000000000000013
#0481b:0013
#04612:00130013
#04618:0013000000130000
#0461b:0000001300000013
#04615:0013
#04516:0000001300000000
#04512:13
#0451b:0000001300000000
#04517:13
#04315:0000001300000000
#04312:13
#04318:0000001300000000
#0431b:13
#0421b:00130013
#04215:0013000000130000
#04212:0000001300000013
#04218:0013
#0401b:1313
#04012:1313
#04015:00130000
#04018:0013001300000000
#03912:13
#03918:0000001300000000
#03818:0000001300000013
#03815:00001313
#0381b:0000000000130000
#03812:00130000
#03718:0000001300000013
#03715:1313
#0371b:0013000000000000
#03712:00130000
#03615:00130000
#03612:13
#03618:0000000000000013
#03418:0000001300000013
#0341b:0000000000130000
#03415:00001313
#03412:00130000
#03318:0000001300000000
#03315:00130000
#0331b:0013000000000000
#03312:24
#03518:0000001300000013
#03212:1313
#0321b:1313
#03218:0000130000000013
#03215:0013001300000000
#0311b:13
#03115:0000001300000000
#03015:0000001300000013
#03018:00001313
#03012:0000000000130000
#0301b:00130000
#02915:0000001300000013
#02918:1313
#02912:0013000000000000
#0291b:00130000
#02818:00130000
#0281b:13
#02815:0000000000000013
#02615:0000001300000013
#02612:0000000000130000
#02618:00001313
#0261b:00130000
#02515:0000001300000000
#02518:00130000
#02512:0013000000000000
#0251a:24
#02510:41
#02218:0000001300000013
#02212:1313
#0221b:0000000000130000
#02215:00000013
#02018:0000001300000013
#02012:0013000013000000
#02015:00130013
#0201b:0000000000130000
#0181b:0013000013000000
#01815:0000001300000013
#01818:00130013
#01812:0000000000130000
#01916:0000001400000000
#0191a:24
#01716:0000001400000000
#01712:24
#01515:00130000
#0151b:00000013
#01512:13
#01618:00130000
#01615:0013000000000000
#0161b:0013
#01612:0000001300000000
#0141b:0000000000000013
#01415:00000013
#01418:0000000000130000
#01412:0013
#01012:0000000000000013
#01018:00000013
#0101b:0013000013000000
#01015:0013000000130000
#00415:1300001300001300
#00412:0013000000000000
#00418:0000130000000013
#0041b:0000000013130000
#0091b:13
#00912:0000001300001300
#00918:0000001300000000
#00910:41
#00215:1300001300001300
#00212:0000000000130000
#00218:0000000013000013
#0021b:0013000000000000
#0011b:2300000000130000
#00112:0000001300001300
#00118:0000130000000013
#00115:0013000000000000
#00015:00000013
#00018:0000000013000013
#00012:0000000000130000
#02318:00000013
#02312:0000000000130000
#0231b:0013
#02315:0000001300000000
#02314:0000000000000024
#06015:0013
#06018:0000001300002300
#0601b:00130000
#06012:0000000000000023
#04915:00130000
#04912:00000013
#0491b:23
#0531b:13
#05318:0000001300000000
#0511b:0000001300000000
#05118:13
#07415:0000001300000023
#07418:00130023
#07412:0000000000230000
#0741b:0023
#0661b:0000000000130000
#06618:0000001300000013
#06615:00130013
#06612:0013
#06610:41
#08618:2600000000000014
#08612:00000014
#0861a:0000000000140000
#08614:0014
#0821b:0013
#08215:0000001300000013
#08218:00130013
#08212:0013000000130000
#04117:0000001300000000
#0411b:13
#04112:0000001300000000
#04116:13
#04110:41
#07118:0000001300000000
#07112:23
#07012:00130000
#07015:0000001300000023
#07018:00002323
#0701b:0000000000230000
#06718:0000001300000013
#04412:0013000000000013
#04418:00130013
#04415:0000001300130000
#0441b:0013
#02715:0000001300000013
#01218:0000001300130000
#0121b:0013000000000013
#01215:00130013
#01212:0013
#01118:00000013
#0111b:13
#08512:00260026
#08518:2626
#08815:23
#08718:00230023
#08715:2323
#08416:0000002400000000
#08412:0000240000000024
#0841a:0024000024000000
#08418:00000024
#08414:0000000000240000
#0241a:0000002424000000
#02412:0000002424000000
#02418:0024000000000000
#04718:00230023
#04715:2323
#02114:00000033000000000000000000000000
#02119:00000000000000000000003300000000
#05512:00000000000000000000000033333333
#05513:00000000000000000000003300000000
#05515:00000000000000000033000000000000
#05514:0000000000330000
#05212:00333333333333330033333333333333
#05019:00000000000000000000003300000000
#05410:41
#0815b:0000005300004300
#08152:0000006300003300
#08159:63
#08154:53
#08158:00000000000000000023000000000000
#08155:00000000000000000023000000000000
#08355:00000023000000000000000000001300
#08358:00000023000000000000000000001300
#08352:6300006300000000
#0835b:5300005300000000
#04552:63000013
#04557:63000013
#04556:0000006300000000
#0455b:0000006300000000
#04352:6300000000000013
#0435b:5300000000000013
#04355:0000006300000000
#04358:0000005300000000
#0415b:53000013
#04156:53000013
#04157:0000005300000000
#04152:0000005300000000
#0495b:13
#04955:00530000
#04952:00000023
#00552:13
#0055b:00000013
#08552:00160016
#08558:1616
#06253:0000000000000056
#06254:00000000000000000000000000000026
#06257:00000025000000250000000000000000
#06258:6565656500000000
#06259:00250000002500000000000000000000
#08855:13
#08056:0014
#0755b:63
#07557:00630000
#0735a:14
#07352:0000000000000023
#0735b:0023
#06552:1423
#0655b:0000000000000023
#0615b:0000006300000000
#06158:0000000000000065
#06157:00000000000000000000000000000025
#06052:0000000000000063
#03352:14
#0255a:14
#0195a:54
#01956:0000005400000000
#01752:64
#01756:0000006400000000
#0015b:13
#00152:00000013
#05755:13
#0575b:00630000
#05758:0053
#07256:0014
#01352:00000000002300000000000000000000
#01354:0053
#01356:63000000000000000000002300000000
#01357:00000000002300000000000000000000
#01359:0053
#0135b:63000000000000000000002300000000
#06354:00000026000000260000000000000000
#06353:5656565600000000
#06352:00260000002600000000000000000000
#07657:00000000000000000023000000000000
#0765b:0000006300000000
#07752:0000000000000063
#0775b:0053
#0695b:0000000000000053
#06952:0063
#06852:00530000
#06855:63
#05955:0000000000000053
#05852:0000000000530000
#05855:0000000000000063
#03758:0000000000000053
#03755:0063
#03655:00630000
#03652:53
#02955:0000000000000063
#02958:0053
#02858:00530000
#0285b:63
#02258:0000000000000063
#01555:00630000
#0155b:00000063
#01552:53
#0165b:0013
#0095b:13
#00952:00000013
#0535b:53
#05358:0000002300000000
#0515b:0000002300000000
#05158:53
#01158:00000013
#011350:0000001300230000
#013360:13000000000000000000333300000000
#013340:0033000033000033
#013330:00000033000000000000000000000000
#013320:00000000005333000000000000000000
#014320:23
#0133b1:13000000000000000000333300000000
#013391:0033000033000033
#013381:00000033000000000000000000000000
#013371:00000000005333000000000000000000
#014371:23
#015321:1323
#015351:00330000
#0153b1:00000013
#016381:23
#017321:14000024
#017361:0000003400000000
#0193a1:14000024
#019361:0000003400000000
#021321:13
#021341:00000033000000000000000000000000
#021351:0000002300000000
#0213b1:0013
#021391:00000000000000000000003300000000
#021381:0000000000000023
#022381:0000000000000013
#0233b1:0023000000000000
#0253b1:0013
#025381:00000023
#025321:0000000000000013
#026351:0023000000000000
#0273b1:13
#027381:00230000
#027381:0013
#0273b1:00000023
#0283b1:1323
#028381:00330000
#029381:0013
#0293b1:00000023
#029351:0000000000000013
#030321:0023000000000000
#0313b1:0013
#031381:00000023
#033321:0013
#033351:00000023
#0333b1:0000000000000013
#034381:0023000000000000
#035321:13
#035351:00230000
#035351:0013
#035321:00000023
#036321:1323
#036351:00330000
#037351:0013
#037321:00000023
#037381:0000000000000013
#0383b1:0023000000000000
#039321:0013
#039351:00000023
#0413b1:13000023
#041371:0000003300000000
#041360:13000023
#041320:0000003300000000
#043320:1300000000003323
#043350:0000003300000000
#0433b1:1300000000003323
#043381:0000003300000000
#045321:13000023
#045361:0000003300000000
#045370:13000023
#0453b0:0000003300000000
#049350:00130000
#049320:00000053
#050350:00230000
#0503b0:0013
#050390:00000000000000000000003300000000
#050380:0000000000000033
#051380:33000023
#0513b0:0000005300000000
#052320:13333333333333330033333333333333
#052350:0033
#053320:23
#0533b1:13000023
#053381:0000005300000000
#054321:13000000000000000000003353532300
#054351:00000033535333003300000000000000
#054341:0000000000000053005300530000000000000000000000000000000000000000
#054331:0000000000000000000000000000000000000000000000530053005300000000
#0553b1:00001353535353532300000000000000
#0553a1:0000000000530053005300530053005300000000000000000000000000000000
#055360:0013
#055350:00000000000000000033000000000000
#055340:0000000000330000
#055330:00000000000000000000003300000000
#055320:00000000000000000000000033333333
#056320:23
#056381:13535353535353532300000000000000
#056391:0053005300530053005300530053005300000000000000000000000000000000
#056350:00000000000000001353535353535353
#056340:0000000000000000000000000000000000530053005300530053005300530053
#057350:23
#0573b0:00130023
#057380:0033
#058320:0000000000130000
#058350:0000000000000033
#059320:0023000000000000
#059350:0000000000000013
#060320:0023000000000000
#060320:0000000000000013
#061360:00230000
#0613b0:0000001300000000
#061380:0000000000230000
#061380:0000000000000015
#061370:00000000000000000000000000000055
#062380:5555555525000000
#062390:00550000005500000000000000000000
#062370:00000055000000550000000000000000
#062330:0000000000000016
#062340:00000000000000000000000000000056
#063330:5656565626000000
#063320:00560000005600000000000000000000
#063340:00000056000000560000000000000000
#065320:0013
#065350:00000023
#0653b0:0000000000000013
#066380:0023000000000000
#067350:13
#067320:00230000
#067320:0013
#067350:00000023
#068350:1323
#068320:00330000
#069320:0013
#069350:00000023
#0693b0:0000000000000013
#070380:0023000000000000
#071320:13
#071350:00230000
#071350:0013
#071320:00000023
#0733b0:0013
#073380:00000023
#073320:0000000000000013
#074350:0023000000000000
#0753b0:1323
#075370:00330000
#0763b0:0000001300002300
#076370:00000000000000000053000000000000
#0773b0:0013
#077380:00000023
#077320:0000000000000013
#078350:0023000000000000
#0793b0:13
#079380:00230000
#079380:0013
#0793b0:00000023
#081390:13
#0813b0:0000003300002300
#081380:00000000000000000053000000000000
#081341:13
#081321:0000003300002300
#081351:00000000000000000053000000000000
#083321:1300003300000000
#083351:00000053000000000000000033002300
#0833b0:1300003300000000
#083380:00000053000000000000000033002300
#086380:1600002600000000
#086350:00000036000000000000000000000000
