This file was generated by Ched 2.7.0.0.
#TITLE ""
#ARTIST ""
#DESIGNER ""
#DIFFICULTY 0
#PLAYLEVEL
#SONGID ""
#WAVE ""
#WAVEOFFSET 0
#JACKET ""
#REQUEST "ticks_per_beat 480"
#00002: 4
#BPM01: 170
#00008: 01
#TIL00: ""
#HISPEED 00
#MEASUREHS 00
#00014:0012
#00016:00000000000000000000120000120000
#0001a:0000000000000012
#00018:00000012
#00112:13001313
#00114:00001300001300000000000000001300
#00117:00130000
#00119:0013001300000013
#0011b:23001313
#00116:0000000000140000
#00217:13
#00214:00130000000000000000000000000000
#00212:00000000130000000000001300001300
#0021b:00131300
#00216:0000001400000000
#00215:00000000000000000013000013000000
#00218:0000000000130000
#00219:0013000000000000
#0041b:1300001313131300
#00416:13000000000013000018001813000000
#00417:0013000000000000
#00414:00130000
#00412:0013000000000000
#00419:00130000
#0081b:0013000000001300
#00817:1300001300130013
#00816:0013000000000000
#00812:1300001300000000
#00819:00130000
#00814:00130000
#0091b:13000013
#00914:00130000
#00912:0013
#00917:0000000000131300
#00910:41
#01014:13
#01012:00130013
#01017:0000001313001300
#01019:0000000000130000
#01015:0000000000000013
#0101b:0013
#01112:13131313
#0111b:00000013
#01117:1300001300000000
#01116:0000000000140000
#01219:00131300
#0121a:00000013
#01217:0013000000130000
#01218:0000000000000013
#0121b:0000001300000000
#01212:13131313
#0131b:00131313
#01316:13131313
#01317:0000001300130000
#01312:0013000000130013
#01314:00000033000000000000003300000000
#01319:00000000000000000000003300000000
#01412:00131400
#01414:0000000000140000
#01416:00000014
#01418:0000000000000014
#0141b:13001313
#01513:0000001400000000
#01516:0014140000131300
#0151a:1413
#01512:1400000000000013
#0181b:0013000000130000
#01817:0000001300000013
#01819:00131313
#01812:14241424
#02218:1300000000130026
#02217:0000001300000000
#02216:0013
#02215:13000000000000000000001316000000
#0221b:00131300
#02212:0000001300000014
#02312:0000130013001326
#02316:1400001400140000
#0231b:0013130000000000
#0231a:0014
#02318:0000000000000016
#0241a:00141414
#02416:0000002424001200
#02418:0016000000120000
#02412:0026001400140000
#02512:2613000013001314
#02515:00000016130000160000160000000000
#02518:2600001300001300
#0251b:0000000013000013
#02510:41
#0261b:0013001300001300
#02612:00131413
#02616:34000000140014000014000000001400
#0261a:0000000000140000
#02718:1600001300130000
#02715:0013000000000013
#02712:13131613
#0271b:00131313
#02917:00000013000000000000000000001300
#02918:13
#0291b:00001313
#02916:0000001313000000
#02912:0013000000130013
#02914:00130000
#02919:00000000001300000000000000000000
#0301b:13131313
#03012:0013001300130013
#03017:0000001300000000
#03015:00000000000000000016000013000000
#03018:0000000000000013
#03016:00130000
#0311b:0000130013130000
#03117:0000001300000000
#03116:1814000000000000
#03112:1400001300001313
#03214:1616000000000000
#0321a:00140014000000000000000000000000
#03213:0000151500000000
#03212:0000000014000016
#03218:00000000001300130000160026000013
#03215:00000000000000000000001300000000
#02818:0000000000000013
#02812:1300151513001500
#02819:1515000015252500
#02817:00130000
#04118:13000013000013000000000000000000
#0411b:1300001300000000
#04115:00000013000000000000000000000000
#04117:00000000000000000013000000000000
#04112:00000000000000000013000000000000
#04110:41
#04212:0013000000000000
#04216:0000131300000000
#0421b:0000000000131300
#04217:0000000000000013
#04315:13000013000013000000000013000000
#04318:1300001300001300
#04312:00000013000000000013000000000000
#0431b:00000000000000000013000000000000
#01612:0013000000001600
#01618:1300131300001600
#0161b:0013000000000000
#01615:0000231300000000
#05116:12000000000000003212000000000000
#05112:0012000000000000
#05114:0000000000000000000000120000000000000000000000000000000000000000
#05113:00320000
#0491c:2200001200000000
#04918:00120000
#0491a:00000000000000000000001200000000
#04912:22
#04919:00000032
#0491b:0032
#01712:14241424
#0171a:24000024
#01716:0000002400000000
#02012:0013000000280018
#02016:0000001300002800
#02014:00131300
#0201a:14241400
#02116:14000014000000001400001418000000
#0211b:0000001300000013
#02112:0014181300000013
#0211a:0000000000140000
#04818:0000000000121200
#0481c:0012
#0481a:2200000000000012
#04814:0000000000000012
#04816:00000000000000000000001200000000
#04812:0012
#04817:22
#05712:2c140014
#0571b:00131313
#05717:0000001300130013
#05716:0014
#0571f:11
#0581b:0000000000130000
#05812:2600002300130013
#05818:0000002600000013
#05815:00000013
#05814:0026000000000000
#05816:00260000
#05912:00130013
#05915:0000001613160013
#0591b:0000000013000013
#05918:00130013
#05916:33
#0591a:33
#06012:00131300
#06016:0000001400002823
#0601b:0000130013000023
#06013:33
#06017:33
#06112:00130000000000001300000000001300
#06118:0000000000000000000000000000000000000000000000000000000000130000
#06117:00000000000000000000000000002313
#06116:0000000000000000000000001300000000000000130000000000000000000013
#06114:00000013
#0611b:0000232300230000
#06119:00000023
#06212:0000000013000000000000001300000013000000000000000000000027000017
#0621b:0000000000000013
#06217:13131313131313130000000000000000
#06218:0013000000130000001300000013000000000000000000000000000000000000
#06216:0000001300000013000000130000001300000000000000000000000000000000
#06213:00000000000000000000000000000017
#06214:0000000000000000000000000000000000000000000000000000000000170000
#0631b:0013001313000000
#06313:17171717171717170000000000000000
#06312:0000001700000017000000170000001700000000000000000000000000000000
#06314:0017000000170000001700000017000000000000000000000000000000000000
#06412:0000000000131619
#07512:2300000023000013
#07516:2400232313000013
#0751b:0023001300000000
#07517:0013000000000000
#07510:41
#07616:1300000000000000000000001300000000000000001300000000000000000000
#07619:00000000130000000013000000000000
#0761b:1300000000000000000000001300000000000000001300000000000000000000
#07617:0000000013000000000000000000001300000000000000000000000000000000
#07612:0000000013000000000000000000001300000000000000000000000000000000
#07614:00000000130000000013000000000000
#07615:0000000000000016
#0811b:00131300
#08116:000000000000000000000000000000000000000000000000000000000000000000000000000000000000000000000000000000000000000000000000000000000000000000000014140000000000000000000000000000000000000000000000000000000000000000000000000000000000000000000000000000000000000000000000000000000000000000000000000000000000000000000000000000000000000000000000000000000000000000000000000000000000000000000000
#08112:00131300
#08118:23
#08115:23
#0861a:0000001424140000
#08616:28001800280000000014001424001400
#08612:14000014000014000000000000140014
#05612:0014001416161616
#0561a:00000014000014000000000000000000
#05616:00140000
#05618:0000000016161616
#05615:19
#05018:12
#0031b:1300130000131300
#00315:00001300001316000016000000000000
#00318:0013000013000000
#00316:00000013
#00312:13000000000000130000000000001300
#00317:0000000000000013
#0061b:00000000130000000000001300001300
#00618:00000000000000000013000013000000
#00612:00131300
#00615:0000000000130000
#00616:1300001400000000
#00619:00130000000000000000000000000000
#00614:0013000000000000
#00712:1300130000131300
#00715:00001300000016001316000000000000
#0071b:13000000000000130000000000001300
#00718:00001300001300000000000000000000
#00717:00000013
#00716:0000000000000013
#0191a:14241424
#01916:0000002400000000
#01912:24000024
#0651b:0013000013000013
#06515:00000016000000161300160000000000
#06518:26130013
#06512:2600001300001300
#06516:0000000000000014
#0651f:21
#0661b:0013001300001300
#06612:14131613
#06616:0000141400000000
#06615:00000000000000000016000000001600
#06618:0000000000160000
#06610:41
#07015:13000000000013000016000000002300
#07012:0013130023001300
#0701b:0000130000230013
#0701a:14
#07018:0000001300002300
#07116:0013001400141400
#07112:2300001400000014
#0711a:00141400
#07118:16
#07218:00000000000000000000160026000016
#07212:2c000000280014002400001600001600
#0721a:00140014000000000000000000000000
#07216:00001400001400140000000000000000
#06815:0000000000000016
#06812:1300251513001500
#06817:00130000
#06819:2515000025252500
#06915:13
#06918:1300140000130000
#06916:0000001414000014
#0691b:00001313
#06912:00000000001400000000140000001300
#0691a:0014000000000000
#06914:00000014000000000000000000000000
#08512:141c141c281c281c
#0851a:00001414
#08516:28280000
#04515:13000013000013000000000000000000
#04512:1300001300000000
#04518:00000013000000000000000000000000
#04516:00000000000000000013000000000000
#0451b:00000000000000000013000000000000
#0051b:13001313
#00519:00001300001300000000000000001300
#00516:0000130000140000
#00514:0013001300000013
#00512:23001313
#0831b:00131300
#08316:000000000000000000000000000000000000000000000000000000000000000000000000000000000000000000000000000000000000000000000000000000000000000000000014140000000000000000000000000000000000000000000000000000000000000000000000000000000000000000000000000000000000000000000000000000000000000000000000000000000000000000000000000000000000000000000000000000000000000000000000000000000000000000000000
#08312:00131300
#08315:23000013
#08318:23000013
#08412:0026001313000026
#0841b:00001300130000000000001300001300
#08418:0026
#08416:0000002600260000
#08414:00260026
#05318:0012000000000000
#0531c:12000000000000003212000000000000
#0531a:0000000000000000000000120000000000000000000000000000000000000000
#05319:00320000
#0461b:0013000000000000
#04617:0000131300000000
#04612:0000000000131300
#04616:0000000000000013
#08216:0013000000000000
#08212:0000131300000000
#0821b:0000000000131300
#08217:0000000000000013
#04416:0014140000000000
#04412:0000131300131300
#0441b:0013001300000000
#04418:0000000013262613
#04415:00000000000000000013000000001300
#04012:00140014000000000000130000000000
#04016:1600000016000000000000000000000000330000000000002300000000000000
#04018:0000151500000000
#0401a:0014
#04015:0000000000000000000013000000130000003300000000330000000000000000
#04017:0013
#0401b:00000023
#04014:0000000000000000000000000000000000000033000033000000000000000000
#04013:0000000000000000000000000000000000000000003300000000000000000000
#0331b:0013000013001300
#03315:00000016000013160000160013000000
#03318:00130000
#03312:2600000013000013
#0331a:0000000000000014
#03412:0013001300141300
#0341b:00130013
#03416:34000000140014000014000000001400
#0341a:0014
#03515:0000001300130000
#03518:0013000016000013
#0351b:13130013
#03512:16131313
#03716:00000013000000000000000000001300
#03715:13
#03712:00001313
#03717:0000001313000000
#0371b:0013000000130013
#03719:00130000
#03714:00000000001300000000000000000000
#03812:13131313
#0381b:0013001300130013
#03816:0000001300000000
#03815:00000000000000000016000000001300
#03817:00130000
#03818:00000013
#03912:1800130013130000
#03916:0014001300000000
#0391a:14
#0391b:0000001300001313
#03615:0000000000000013
#0361b:1313
#03612:1515000015252500
#03619:0000151500001500
#03616:00130000
#06715:0016001600160016
#06712:26132613
#0671b:00130013
#06718:2626
#07312:2613000013000013
#07315:00000016130000160000160013000000
#0731b:0000001300001300
#07316:0000000000000014
#07318:0013
#07412:0013001326000000
#0741b:00130000
#0741a:14
#07416:0000141400000000
#07418:0000000026252423
#07413:0000000000250000
#07415:0000000000000023
#07414:00000024
#07815:00000000000013000016000023000000
#0781b:0013130023001300
#07812:1400130000230013
#07818:1300001300000023
#07916:0000001400141400
#0791a:0000001400000014
#07912:16141400
#07917:0013000000000000
#0791b:23
#07718:13000014000000000000000000000000
#07715:1300000000130000
#07716:0000001414000014
#07712:0014000013001300
#0771a:00000000001400000000140000000000
#0771b:0000000000000013
#07714:00140000
#08012:2c140014000000000000000016000000
#08016:00001400281400140014140000000000
#0801a:0000001424000000
#08018:00000016
#04717:22222222
#04712:22
#0471c:00220000
#04714:00000022
#0471a:0022
#08712:00220022
#08717:22002222
#0871c:00222200
#08817:22
#0881c:22
#05513:00000000000000000000003200000032
#05519:00000000000000000032000000320000
#05410:41
#0135b:00635353
#01357:0000002300230000
#01356:63536353
#01352:0023000000230023
#02957:0000000000000063
#02958:13
#02952:0000000000230000
#02956:0053
#02955:13
#0305b:23
#04158:53000023000053000000000000000000
#0415b:5300005300004300
#04157:00000000000000000023000000000000
#04155:00000023000000000000000000000000
#04152:00000000000000000023000000000000
#04156:00000043
#04355:53000023000053000000000063000000
#04352:00000023000000000023000000001300
#0435b:00000000000000000023000000001300
#04358:5300005300005300
#02852:53455300
#02857:00630000
#02859:4545
#05156:62000000000000000022000000000000
#05152:0022000000000000
#05154:0000000000000000000000620000000000000000000000000000000000000000
#0495c:1200002200000000
#04958:00620000
#04952:12
#0495a:00000000000000000000006200000000
#00456:00000053
#0045b:00000053
#0015b:13000013
#02558:16
#02552:1600000000000054
#0115b:00000013
#01157:5300005300000000
#01553:0000002400000000
#01556:0024540000235300
#0155a:5453
#01552:0000000000000023
#01658:5300532343000000
#0165b:0023000000000000
#01655:0000632333000000
#0175a:54000054
#01756:0000005400000000
#01752:00140014
#02156:1414
#02255:13
#02258:1300000000000046
#02252:0000000000000054
#03152:64
#03156:4824000000000000
#03254:36
#03253:00350000
#03252:0034
#0405b:00000043
#04056:46000043
#04052:0000000000230000
#0405a:0044
#04058:00450000
#04057:0063
#02456:00000032
#02458:0000000000420000
#05955:0000000000000063
#0595b:0000000000000023
#0765b:0000000000000000000000005300000000000000002300000000000000000000
#07657:0000000000000000000000000000002300000000000000003300000000000000
#07659:00000000000000000053000000000000
#07656:0000000000000000000000005300000000000000002300000000000000000000
#07652:0000000000000000000000000000002300000000000000003300000000000000
#07654:00000000000000000053000000000000
#0815b:00232300
#08156:000000000000000000000000000000000000000000000000000000000000000000000000000000000000000000000000000000000000000000000000000000000000000000000054640000000000000000000000000000000000000000000000000000000000000000000000000000000000000000000000000000000000000000000000000000000000000000000000000000000000000000000000000000000000000000000000000000000000000000000000000000000000000000000000
#08152:00232300
#08158:53000043
#08155:63000033
#06158:0000000000000000000000000000000000000000000000000000000000230000
#06157:00000000000000000000000000005353
#06156:0000000000000000000000000000000000000000000000000000000000000023
#06152:00230000000000000000000000000000
#06257:53535353535353530000000000000000
#06258:0023000000230000002300000023000000000000000000000000000000000000
#06256:0000002300000023000000230000002300000000000000000000000000000000
#06252:0000000000000000000000000000000013000000000000000000000057000027
#06253:00000000000000000000000000000057
#06254:0000000000000000000000000000000000000000000000000000000000270000
#05858:0000000000000063
#05852:0000000000000023
#07552:5363
#07556:14535300
#07557:0023000000000000
#0755b:0000002300000000
#05752:1c
#0575b:00535353
#05757:0000002300230023
#05058:22
#0145b:53
#01456:33
#01956:0000006400000000
#01952:64000064
#0195a:00140014
#0605b:0000000013000013
#06056:0000000000000053
#06052:0013
#06652:24
#08857:42
#0885c:42
#0095b:43000043
#00957:33000033
#04555:63000023000063000000000000000000
#04552:6300006300003300
#04558:00000023000000000000000000000000
#04556:00000000000000000023000000000000
#0455b:00000000000000000023000000000000
#04557:00000033
#05655:49
#0635b:0013
#06353:57575757575757570000000000000000
#06352:0000002700000027000000270000002700000000000000000000000000000000
#06354:0027000000270000002700000027000000000000000000000000000000000000
#00552:13000013
#0835b:0000230023000013
#08356:000000000000000000000000000000000000000000000000000000000000000000000000000000000000000000000000000000000000000000000000000000000000000000000054640000000000000000000000000000000000000000000000000000000000000000000000000000000000000000000000000000000000000000000000000000000000000000000000000000000000000000000000000000000000000000000000000000000000000000000000000000000000000000000000
#08352:0000230023000013
#08358:53000053
#08355:63000053
#06556:0000000000000054
#06552:36
#06558:46
#07458:00001614
#0745a:24
#07453:0000000000150000
#07455:0000000000000013
#05358:0022000000000000
#0535c:62000000000000000022000000000000
#0535a:0000000000000000000000620000000000000000000000000000000000000000
#08556:18180000
#08552:00001818
#08656:18180000
#0235a:0064
#02356:2400000000240000
#01852:00140014
#0205a:00140000
#02052:0000000000380000
#02056:00000048
#02758:46
#02752:0036
#03756:0000000000000053
#03755:13
#03757:0063
#0375b:0000000000230000
#03758:13
#03852:23
#03952:38
#0395a:54
#03956:0024000000000000
#0365b:6363
#03652:3535
#03656:00530000
#03659:00350000
#03552:36
#03558:0046
#0335a:0000000000000064
#03352:16
#06758:46
#06752:0036
#06852:53455300
#06857:00630000
#06859:4545
#06958:43
#06955:33
#06956:0000000054000064
#06952:0000000000240000
#0705a:24
#07158:46
#07156:0023000000000000
#07152:53
#07356:0000000000000064
#07352:36
#07252:3c383400
#07758:43
#07755:33
#07756:0000000064000054
#0775a:0000000000240000
#07852:24
#07952:36
#07957:0023000000000000
#0795b:63
#08052:4c000036
#08056:00480000
#0805a:0044
#08058:00000046
#0023b0:00000013
#002370:0000000000000023
#004360:00000013
#004320:0000000000000023
#0043b1:00000013
#004371:0000000000000023
#006321:00000013
#006361:0000000000000023
#008321:0000000000130033
#008371:00000033
#009371:23
#009371:0000001323000000
#010371:0013230000000000
#011371:13
#0113b1:00230000
#011371:0000001300000000
#0113b1:0000000000230000
#013361:13330000
#013321:0033002300000000
#013341:00000033000000000000000000000000
#0133b0:00135333
#013370:0000003300330023
#013390:00000000000000000000005300000000
#013361:00001353
#013321:0000000000330033
#013341:00000000000000000000003300000000
#014361:23
#0143b0:13
#014360:00230000
#0153a0:14240000
#015360:0034000000000000
#015361:00142400
#015331:0000003400000000
#0153a0:0013
#015360:0000000000330000
#015390:00000023
#015361:00000013
#015321:0000000000000033
#016351:23
#016380:13332300
#0163b0:0033000000000000
#016350:0000005300000000
#016351:00132300
#016381:0000005300000000
#0173a1:14
#017361:00240000
#017361:0000001400000000
#0173a1:0000000000240000
#0173a1:00000014
#018361:24
#019321:14
#019361:00240000
#019361:0000001400000000
#019321:0000000000240000
#019321:00000014
#020361:24
#022321:0000000000000014
#023361:54
#023321:0024000000000000
#0233a1:00001424
#023361:0000000000540000
#025321:0000000000000014
#026361:3424000000000000
#028321:13
#028361:0023000000000000
#028371:00130000
#0283b1:0000002300000000
#028321:0013
#028361:0000000000230000
#028351:0000000000000013
#029351:23
#029361:0013
#029321:0000000000330000
#029371:00000023
#029371:0000000000000013
#0303b1:33
#030361:0023000000000000
#031321:14240000
#031361:0034000000000000
#031361:0000000013230000
#031371:0000000000001323
#0333a1:0000000000000014
#034361:3424000000000000
#0363b1:13
#036371:0023000000000000
#036361:00130000
#036321:0000002300000000
#0363b1:0013
#036371:0000000000230000
#036381:0000000000000013
#037381:23
#037371:0013
#0373b1:0000000000330000
#037361:00000023
#037361:0000000000000013
#038321:33
#038371:0023000000000000
#0393a1:14240000
#039361:0034000000000000
#039371:0000000013230000
#039361:0000000000001323
#040371:0013
#040361:0000000000000000000000000000000000330000000000002300000000000000
#040351:0000000000000000000000000000000000003300000000330000000000000000
#040341:0000000000000000000000000000000000000033000033000000000000000000
#040321:0000000000330000
#040331:0000000000000000000000000000000000000000003300000000000000000000
#041381:1300003300000000
#041351:00000053000000000000000000000000
#041321:00000000000000000053000000000000
#041361:00000023
#0413b0:1300003300002300
#041380:00000053000000000000000000000000
#041370:00000000000000000053000000000000
#042360:0013000023000000
#0423b0:0000333300000000
#042321:0000000013000023
#042371:0000000000333300
#043351:1300003300003300
#043321:00000053000000000053000000002300
#043380:1300003300003300
#043350:00000053000000000000000000000000
#0433b0:00000000000000000053000000002300
#045350:1300003300000000
#045380:00000053000000000000000000000000
#0453b0:00000000000000000053000000000000
#045370:00000023
#045321:1300003300002300
#045351:00000053000000000000000000000000
#045361:00000000000000000053000000000000
#046371:0013000023000000
#046321:0000333300000000
#0463b0:0000000013000023
#046360:0000000000333300
#049380:00120000
#0493c0:0000005200000000
#0493b0:0032
#0493a0:00000000000000000000005200000000
#049390:00000032
#050380:32
#0503c0:00220000
#049321:000000000000000000000000145454545454545454545454545454545454545454545454545454545454545454545454
#049331:000000000000000000000000000000000000000000000000005400540054005400540054005400540054005400540054005400540054005400540054005400540054005400540054005400540054005400540054005400540054005400540054
#050321:545454545454545454545454545454545454545454545454240000000000000000000000000000000000000000000000
#050331:005400540054005400540054005400540054005400540054005400540054005400540054005400540054005400540054000000000000000000000000000000000000000000000000000000000000000000000000000000000000000000000000
#050370:0012
#0503c0:00000000000000000000002200000000
#050371:00000000000000000000001200000000
#050321:0000000000000032
#051361:32000000000000003252000000000000
#051321:0052000000002200
#051331:00320000
#051341:0000000000000000000000520000000000000000000000000000000000000000
#0513a0:145454545454545454545454545454545454545454545454545454545454545454545454545454545454545454545454
#051390:005400540054005400540054005400540054005400540054005400540054005400540054005400540054005400540054005400540054005400540054005400540054005400540054005400540054005400540054005400540054005400540054
#0523a0:24
#052321:12220000000000000000000000000000
#052380:00122200000000000000000000000000
#052341:00001222000000000000000000000000
#0523a0:00000012220000000000000000000000
#052361:00000000122200000000000000000000
#0523c0:00000000001222000000000000000000
#052321:00000000000012220000000000000000
#052380:00000000000000122200000000000000
#052341:00000000000000001222000000000000
#0523a0:00000000000000000012220000000000
#052361:00000000000000000000122200000000
#0523c0:00000000000000000000001222000000
#052341:00000000000000000000000012220000
#052390:00000000000000000000000000122200
#052361:00000000000000000000000000001222
#0523c0:00000000000000000000000000000012
#0533c0:32000000000000003252000000000000
#053380:0052000000002200
#053390:00320000
#0533a0:0000000000000000000000520000000000000000000000000000000000000000
#053321:145454545454545454545454545454545454545454545454545454545454545454545454545454545454545454545454
#053331:005400540054005400540054005400540054005400540054005400540054005400540054005400540054005400540054005400540054005400540054005400540054005400540054005400540054005400540054005400540054005400540054
#054321:24
#0543c0:1200002200000000
#054370:00000032000000000000000000000000
#054321:000000000000000000145454545454545454240000000000000000000000000000000000000000000000000000000000
#054331:000000000000000000000000000000000000005400540054005400540054005400540054000000000000000000000000000000000000000000000000000000000000000000000000000000000000000000000000000000000000000000000000
#054321:0000000012000022
#054371:00000000000000000000003200000000
#0543a0:000000000000000000000000000000000000000000000000000000000000000000145454545454545454240000000000
#054390:000000000000000000000000000000000000000000000000000000000000000000000000000000000000000000000000000000000000000000000000000000000000005400540054005400540054005400540054000000000000000000000000
#055320:0015000022000000
#055350:000000000000000000000000005100000000560000000000000000000000000000000000000000000000000000000000000000000000000000000000000000000000000000000000000000000000000000000000000000000000000000000000
#055330:000000000000005600000000000000000000000000000000000000000000000000000000000000000000000000000000
#055360:0000000000510000000000000000000000000000000000000000000000000000
#055340:005600000000
#055370:000000000000000000000000000000000051005300000000000000000000000000000000000000000000000000000000000000000000000000000000000000000000000000000000000000000000000000000000000000000000000000000000
#0553c1:0012
#055391:00000000000000000032000000000000
#055381:0000000000220000
#055360:0000000000120000
#055330:00000000000000000000003200000000
#055320:00000022
#0553c1:00000012
#055391:00000000000000000000000000320000
#055381:0000000000000022
#055360:0000000000000012
#055330:00000000000000000000000000000032
#056320:22
#0573b0:00133333
#057370:0000003300330033
#0583b0:23
#058380:0000000000000013
#0593a0:33
#0593b0:0023000000000000
#058321:0000000000000013
#059361:33
#059381:0023000000000000
#059351:0000000000000013
#060331:33
#060321:0023000000000000
#0593b0:0000000000000013
#060370:33
#060350:0023000000000000
#060360:0000000000000013
#061320:00530000000000000000000000000000
#061360:00230000
#061370:00000000000000000000000000001353
#061380:0000000000000000000000000000000000000000000000000000000000530000
#061360:0000000000000000000000000000000000000000000000000000000000000053
#062370:53535353535353532300000000000000
#062380:0053000000530000005300000053000000000000000000000000000000000000
#062360:0000005300000053000000530000005300000000000000000000000000000000
#062320:0000000000000000000000000000000000000000000000000000000017000057
#062340:0000000000000000000000000000000000000000000000000000000000570000
#062330:00000000000000000000000000000057
#063330:57575757575757570000000000000000
#063340:0057000000570000005700000057000027000000000000000000000000000000
#063320:0000005700000057000000570000005700000000000000000000000000000000
#065360:0000000000000014
#066320:34
#066360:0024000000000000
#068320:13
#068360:0023000000000000
#068370:00130000
#0683b0:0000002300000000
#068320:0013
#068360:0000000000230000
#069360:0014
#069320:0000000000340000
#069370:00000024
#069360:0000000000000014
#0703a0:34
#070350:0024000000000000
#071320:13230000
#071360:0033000000000000
#071360:0014
#071320:0000000000240000
#0713a0:00000014
#071360:0000000000000024
#073360:0000000000000014
#0743a0:34
#074360:0024000000000000
#075320:13230000
#075370:0033000000000000
#075361:00133300
#0753b1:0000005300002300
#075320:0013
#075370:00000023
#0763b0:0000000000000000000000001300000000000000005300000000000000000000
#076370:0000000000000000000000000000005300000000000000002300000000000000
#076390:00000000000000000053000000000000
#076361:0000000000000000000000001300000000000000005300000000000000000000
#076321:0000000000000000000000000000005300000000000000002300000000000000
#076341:00000000000000000053000000000000
#077361:0014
#0773a1:0000000000340000
#077351:00000024
#077361:0000000000000014
#078321:34
#078371:0024000000000000
#0793b1:13230000
#079371:0033000000000000
#079361:0014
#0793a1:0000000000240000
#079321:00000014
#079361:0000000000000024
#081381:13
#0813b1:00530000
#081361:0000003400000000
#081321:0053
#081351:00000023
#081350:13
#081320:00530000
#081360:000000000000000000000000000000000000000000000000000000000000000000000000000000000000000000000000000000000000000000000000000000000000000000000054000000000000000000000000000000000000000000000000000000000000000000000000000000000000000000000000000000000000000000000000000000000000000000000000000000000000000000000000000000000000000000000000000000000000000000000000000000000000000000000000
#0813b0:0053
#081380:00000023
#0823b0:0013000023000000
#082360:0000333300000000
#082321:0000000013000023
#082371:0000000000333300
#083381:13000033
#0833b1:0000530000000023
#083361:0000003400000000
#083321:0053
#083350:13000033
#083320:0000530000000023
#083360:000000000000000000000000000000000000000000000000000000000000000000000000000000000000000000000000000000000000000000000000000000000000000000000054000000000000000000000000000000000000000000000000000000000000000000000000000000000000000000000000000000000000000000000000000000000000000000000000000000000000000000000000000000000000000000000000000000000000000000000000000000000000000000000000
#0833b0:0053
