This file was generated by Ched 2.7.0.0.
#TITLE ""
#ARTIST ""
#DESIGNER ""
#DIFFICULTY 0
#PLAYLEVEL
#SONGID ""
#WAVE ""
#WAVEOFFSET 0
#JACKET ""
#REQUEST "ticks_per_beat 480"
#00002: 4
#BPM01: 170
#00008: 01
#TIL00: ""
#HISPEED 00
#MEASUREHS 00
#00212:1414
#00218:00140000
#0011a:1414
#00114:00140000
#0061a:1414
#00614:00140000
#00512:1414
#00518:00140000
#01012:14
#01018:00140000
#01014:0014
#0151a:14
#01518:0014
#01514:00140000
#01512:00000014
#02118:1414
#02114:00140014
#02218:14
#02214:0014
#04216:0014
#04212:00140000
#0421a:00000014
#04616:0014
#04612:00140000
#0461a:00000014
#0571a:14
#05714:00140000
#05718:0014
#05712:00000014
#0571f:11
#0031a:14
#00318:0014
#00314:00140000
#00312:00000014
#00418:14
#0041a:0014
#00414:00140000
#00712:14
#00718:00140000
#00714:0014
#0071a:00000014
#0091a:14
#00914:00140000
#00918:0014
#00910:41
#01718:14
#01719:0000003400000000
#01812:00140000
#01816:0014
#0181a:00000014
#01914:14
#01913:0000003400000000
#0201a:00140000
#02016:0014
#02012:00000014
#02514:00140014
#0251a:2414
#02510:41
#02912:00140000
#02918:0014
#02914:00000014
#0291a:14
#0301a:14
#03018:0014
#03012:00140000
#03014:00000014
#0411a:14
#04118:0000001400000000
#04110:41
#0491a:14
#04918:00000014
#05114:14
#05112:00000014
#06518:0014
#06514:00140000
#06512:00000014
#0651a:24
#0651f:21
#06618:0014
#0661a:14
#06614:00140000
#06612:00000014
#06610:41
#06912:00140000
#06918:0014
#06914:00000014
#0691a:24
#0701a:14
#07018:0014
#07012:00140000
#07014:00000014
#0711a:14
#07112:0014
#0841a:00140000
#08416:0014
#08412:00000014
#08618:14140000
#08612:00001414
#08216:0014
#08212:00140000
#0821a:00000014
#0811a:14
#08118:0000001400000000
#08312:14
#08314:0000001400000000
#0851a:24140000
#08514:00001414
#02312:00140000
#02318:0014
#0231a:14
#02314:00000014
#01118:14
#01114:00140000
#0111a:0014
#01214:14
#01218:00140000
#01212:0014
#0131a:14
#01318:0014
#01412:0014
#04416:0014
#0441a:00140000
#04412:00000014
#04312:14
#04314:0000001400000000
#0451a:14
#04518:0000001400000000
#05912:14
#05918:00140000
#05914:0014
#0591a:00000014
#06116:0000000000160000
#06118:0000363600000036
#06314:00000016000000000000000000000000
#0681a:14
#06816:00140000
#06812:0014
#07314:0014
#07318:00140000
#0731a:00000014
#07312:24
#07414:0014
#07412:14
#07418:00140000
#0741a:00000014
#07912:14
#0791a:0014
#07612:14
#07616:00140000
#0761a:0014
#0771a:00140000
#07714:0014
#07718:00000014
#07712:24
#07812:14
#07814:0014
#0781a:00140000
#07818:00000014
#02618:1414
#02612:00140014
#0311a:14
#03112:0014
#03218:1616
#03212:00160000
#0281a:14
#02816:00140000
#02812:0014
#03318:00140014
#03312:2414
#0371a:00140000
#03714:0014
#03718:00000014
#03712:14
#03812:14
#03814:0014
#0381a:00140000
#03818:00000014
#03414:1414
#0341a:00140014
#03912:14
#0391a:0014
#04012:1616
#04018:00160000
#03612:14
#03616:00140000
#0361a:0014
#00812:14
#00814:00340000
#0161a:14
#01616:00140000
#01612:0014
#05318:14
#0531a:00000014
#05512:14
#05514:00000014
#06018:0000000000002636
#07218:2626
#07212:00260000
#08818:24
#04814:24
#04714:2424
#04718:00240024
#06212:0000000000000026
#08014:2424
#08018:00240000
#07512:24
#07518:0024
#07510:41
#08718:2424
#08714:00240024
#02412:34340000
#05410:41
#01758:54
#01954:64
#0415a:64000014
#04158:0000002400000000
#04958:00000024
#0495a:64
#05154:64
#05152:00000024
#0815a:64000014
#08158:0000002400000000
#08352:54000014
#08354:0000002400000000
#01358:0054
#0135a:54
#04352:54000014
#04354:0000002400000000
#0455a:64000014
#04558:0000002400000000
#0575a:14
#06156:0000000000260000
#06058:00000056
#06252:0000000000000056
#06354:00000026000000000000000000000000
#0655a:14
#0715a:14
#07152:0014
#07258:0016
#07952:14
#0795a:0014
#08054:0014
#0315a:14
#03152:0014
#03258:0016
#03952:14
#0395a:0014
#04052:0016
#00852:54
#05358:54
#0535a:00000024
#05552:54
#05554:00000024
#02354:00000054
#008320:14
#008340:00342400
#0133a0:14
#013380:0034
#0143a0:24
#017380:14
#017390:0000003400000000
#0173a0:00000024
#019340:14
#019330:0000003400000000
#019320:00000024
#023340:00000014
#024320:34342400
#0273a0:14240000
#027340:00001424
#035320:14240000
#035380:00001424
#0413a0:14000024
#041380:0000003400000000
#043320:14000024
#043340:0000003400000000
#0453a0:14000024
#045380:0000003400000000
#0493a0:14
#049380:00000054
#0503a0:0024
#051340:14
#051320:00000054
#052340:0024
#053380:14
#0533a0:00000054
#054380:0024
#055320:14
#055340:00000054
#056320:0024
#0583a0:14
#058390:00340000
#058380:0024
#060320:14
#060330:00340000
#060340:0024
#060380:0000000000001636
#061380:0000363600000036
#061360:0000000000360000
#062380:0026
#062320:0000000000000016
#063340:00000056000000000000000000000000
#063320:0026
#0673a0:14
#067380:00240000
#067340:0014
#067320:00000024
#075320:14
#075340:00240000
#075380:0014
#0753a0:00000024
#0813a0:14000024
#081380:0000003400000000
#083320:14000024
#083340:0000003400000000
