This file was generated by Ched 2.7.0.0.
#TITLE ""
#ARTIST ""
#DESIGNER ""
#DIFFICULTY 0
#PLAYLEVEL
#SONGID ""
#WAVE ""
#WAVEOFFSET 0
#JACKET ""
#REQUEST "ticks_per_beat 480"
#00002: 4
#BPM01: 210
#00008: 01
#TIL00: ""
#HISPEED 00
#MEASUREHS 00
#00019:14
#00213:14
#0041a:14
#00818:14
#00614:14
#01012:14
#02012:14
#02018:0014
#02010:41
#02112:14
#02219:14
#02213:0014
#02319:14
#02414:14
#0241a:0014
#02514:14
#03812:0016
#03818:26
#03810:41
#03918:16
#03612:14
#04212:16
#04218:0016
#04312:16
#04818:16
#04812:0016
#04918:16
#05212:16
#05218:0016
#05312:16
#05418:14
#05410:41
#05614:14
#0661a:1414
#0671a:14
#06814:1414
#06914:14
#07018:1414
#07010:41
#07118:14
#07212:1414
#07312:14
#09218:1616
#09318:16
#09418:0016
#09412:26
#09512:16
#09518:0016
#09612:1616
#09712:16
#10118:16
#09118:16
#09112:0016
#09012:0016
#09018:26
#08418:1616
#08518:16
#10512:16
#10618:16
#10612:0016
#10718:16
#10712:0016
#11012:16
#11018:0016
#11112:16
#11118:0016
#11418:14
#11614:14
#1181a:14
#0121a:14
#01314:14
#0141a:14
#01514:14
#01618:14
#01712:14
#0761a:14
#07814:14
#08012:14
#10418:0016
#0051a:14
#00714:14
#00918:14
#01112:14
#08812:1616
#08912:16
#10012:0016
#0741f:11
#07418:24
#08218:26
#0821f:21
#08612:26
#08310:41
#10210:41
#07458:64
#0765a:24
#08052:24
#07854:64
#018380:14
#019380:24
#0263a0:1434
#0273a0:24
#028340:14
#029320:0034
#030320:34
#031340:0024
#032380:14
#0333a0:0034
#0343a0:34
#035380:0024
#040380:1636
#041380:26
#044320:1636
#045320:26
#046380:1626
#047320:1626
#050320:1626
#051380:1626
#0583a0:14
#059380:34
#060380:34
#0613a0:24
#062320:14
#063340:34
#064340:34
#065320:24
#074380:14
#0753a0:34
#0763a0:34
#077380:24
#078340:14
#079320:34
#080320:34
#081340:24
#082380:1626
#083320:1626
#086320:1626
#087380:1626
#098380:16
#098370:0036
#099360:36
#099370:0036
#100380:26
#102320:16
#102330:0036
#103340:36
#103330:0036
#104320:26
#108380:16
#108360:0036
#109380:26
#112320:16
#112340:0036
#113320:26
#120320:1400000000000034
#121320:0000002400000000
