This file was generated by Ched 2.7.0.0.
#TITLE ""
#ARTIST ""
#DESIGNER ""
#DIFFICULTY 0
#PLAYLEVEL
#SONGID ""
#WAVE ""
#WAVEOFFSET 0
#JACKET ""
#REQUEST "ticks_per_beat 480"
#00002: 4
#BPM01: 210
#00008: 01
#TIL00: ""
#HISPEED 00
#MEASUREHS 00
#00018:1300130000000013
#00012:0013
#0001b:0013
#00115:0013000000000000
#00118:0000130000130000
#00112:0013
#01218:0000130013000013
#0121b:13000013
#01212:1313
#01215:0000001300000000
#01318:0013001300000013
#0131b:00130000
#01315:1300000000131300
#01312:0000001300000000
#01418:1300001300000013
#01415:0000130000130013
#0141b:0000000013130000
#01412:13
#01518:0013001300000000
#01515:00130000
#01512:1300000000131300
#0151b:0000000000131300
#01817:0000131300000000
#01816:0000000000130000
#01818:0000000000000013
#01815:13
#0181b:13
#01812:0000131300000000
#01915:13130000
#01912:0013000000000000
#01918:0000001300000000
#01916:00000013
#0191b:00001313
#02012:00130013
#02018:0013
#02015:0013001300130013
#0201b:00130013
#02010:41
#02115:0013001300130000
#02112:00130013
#0211b:00130013
#02118:1313
#02215:1313
#0221b:00130013
#02218:0013001300130013
#02212:00130013
#02817:13
#02813:0000132300000000
#02814:0000000000132300
#02812:23
#0311b:00000013
#03112:0000001323001300
#03114:1323000000000000
#0351c:0000000000000012
#03519:1323000000130000
#03514:0000000000130000
#03512:00000013
#03517:00000013
#0351b:0000001323000000
#0361a:0000121200000000
#03618:0000000000121200
#0361c:12
#0371a:1212001200000000
#0371c:0012
#03712:0012
#03817:13
#0381b:0013000013000000
#03818:0000000000130013
#03815:00000013
#03812:24240000
#03810:41
#0391b:1300000000131300
#03917:0000001300000000
#03912:0000131300000000
#03916:13000013
#04012:1313
#04015:0013001300130013
#04018:00130013
#0401b:1313
#04112:1300131300001300
#04117:0000131300000000
#0411b:13000013
#0451b:0000131300001300
#04518:13
#04516:0000131300000000
#04512:00000013
#04716:0000000000130000
#0471b:1300000013130000
#04718:0013000000000000
#04715:00130000
#04712:0000001300000000
#04812:13001313
#04815:0013001300000000
#04818:0000130000000013
#0481b:0013
#04918:13
#04915:00131300
#0491b:0000001313001300
#04912:13000013
#05412:1313
#05415:0013000000130000
#05418:00130013
#0541b:0000001300000013
#05410:41
#0551b:13
#05512:0013001300130013
#05519:00130000
#05517:0013
#05515:00000013
#06318:0000121200000012
#06316:12
#06314:0000000000000012
#06418:1200000000120000
#0641a:0000121200000000
#06416:0000000000000012
#06414:12121200
#06413:0012000000120000
#06415:0000001200000000
#06419:0012
#06518:12
#06516:0000001212000000
#0651c:0012
#06512:12
#06612:13000013
#06615:0013000000130013
#06618:00131300
#0661b:1300001300000000
#06718:1300130000000013
#06715:0000001300000000
#0671b:0013000000000000
#06712:13
#0681b:13000013
#06818:0013000000130013
#06815:00131300
#06812:1300001300000000
#06915:13130000
#06918:0000001300000000
#06912:0013000000001300
#0691b:13
#07018:1313000013001300
#07012:00130000
#07015:0000001300000013
#0701b:0000000000130000
#07010:41
#07112:13130000
#0711b:0013001300000000
#07115:0000000000000013
#07218:0000132300001300
#0721b:1300000000130000
#07215:2300000000000013
#07212:0000001300000000
#07312:13
#0741b:2313
#07415:0000000000130013
#07418:00000013
#07416:13
#07417:00130000
#0741f:11
#07412:00230000
#0751b:13
#07518:0000131300001300
#07512:0000131300000000
#07516:00000000000000000013000000000000
#0761b:1313
#07619:0013000000130000
#07612:00130013
#07614:0000001300000013
#07617:00130013
#07616:1313
#0771b:1300002300001300
#07716:1300001300000000
#07717:00130000
#07712:00230013
#09917:0000000000130000
#0991b:0013
#09912:0000000000130000
#1001b:1300001313000013
#10018:0013000000130000
#10012:0013130000131300
#10015:0000001300000013
#1011b:13000023
#10118:0000131300000000
#10112:00130023
#00215:1300130000000013
#0021b:0013
#00212:0013
#00318:0013000000001300
#00315:0000130000130000
#0031b:0013
#00312:0000000000000013
#00412:13130000
#00414:0013000000000000
#00415:00001313
#00413:0000000000130000
#00512:13130000
#00514:0013000000000000
#00515:00001313
#00513:0000000000130000
#0061b:13130000
#00619:0013000000000000
#00618:00001313
#0061a:0000000000130000
#0071b:13130000
#00719:0013000000000000
#00718:00001313
#0071a:0000000000130000
#00815:13130000
#00813:0013000000000000
#00818:0000001300000000
#0081b:00001313
#00819:0000000000130000
#00812:0000000000000013
#00912:13130000
#00914:0013000000000000
#0091b:0000001300000000
#00918:00001313
#0091a:0000000000130000
#00915:0000000000000013
#01118:0000000000000013
#0111b:13130000
#01119:0013000000000000
#01112:0000001300000000
#01115:00001313
#01113:0000000000130000
#01615:0000130013000013
#01612:13000013
#0161b:1313
#01618:0013001300000000
#01715:0013001300000013
#01712:00130000
#01718:1300000000131300
#0171b:0000001300000000
#02318:0013001300130000
#0231b:00000000130000000000000013330033
#02312:00130013
#02315:1313
#02317:0000000000000013
#02412:1313
#0241b:0013
#02415:0013001300130013
#02418:00130013
#02515:0013001300130000
#02518:00130013
#02512:1313
#0251b:1313
#0261b:1313
#02612:1313
#02618:0013001300130013
#02615:00130013
#02718:0013001300130000
#02715:00130013
#0271b:1313
#02712:1300000013000013
#02915:1323000000000000
#02912:0000001323001300
#03017:13
#0301b:00000013
#03014:0000132300000000
#03016:0000000000132300
#03012:23
#04216:13
#04212:0013000013000000
#04215:0000000000130013
#04218:00000013
#0421a:24240000
#04312:1300000000131300
#04316:0000001300000000
#0431b:0000131300000000
#04317:13000013
#0441b:13001313
#04418:0013001300000000
#04415:00000000130000000000000000000013
#04412:13001313
#04615:13130013
#0461b:1313
#04618:0013000000130000
#04612:0000001300000013
#05117:0000000000130000
#05112:1300000013130000
#05115:0013000000000000
#05118:00130000
#0511b:0000001300000000
#0521b:13001313
#05218:0013001300000000
#05215:0000130000000013
#05212:0013
#05315:13000023
#05318:00131300
#05312:0000001313000000
#0531b:13000023
#05018:13130013
#05012:1313
#05015:0013000000130000
#0501b:0000001300000013
#0561b:1313
#05618:0013000000130000
#05615:00130013
#05612:0000001300000013
#05712:13
#0571b:0013001300130013
#05714:00130000
#05716:0013
#05718:00000013
#05814:12000012
#05816:0012000000120012
#05818:00121200
#0581a:0000001200000000
#05916:0000121200000000
#05918:12
#05914:0000000000000012
#0601a:12000012
#06018:0012000000120000
#06016:0000120012000012
#06014:0000001200000000
#0601c:0000000000000012
#0611c:12
#06116:12
#06112:0000121200000000
#06118:0000121200000000
#0621a:12000012
#06218:0012000000120012
#06216:00121200
#06214:0000001200000000
#07812:2313
#07818:0000000000130013
#07815:00000013
#07817:13
#07816:00130000
#0781b:00230000
#07912:13
#07915:0000131300001300
#0791b:0000131300000000
#07917:00000000000000000013000000000000
#08012:1212
#08014:0012000000120000
#0801c:00120012
#0801a:0000001200000012
#08016:00120012
#08018:0012
#08118:1200001200000000
#08116:00120000
#0811b:00220000
#08113:0000002200000000
#08217:13130000
#0821b:0013001300000000
#08218:0000000000130013
#08215:00000013
#08212:24241300
#0821f:21
#0831b:1300000000131300
#08317:0000001300000000
#08312:0000131300000000
#08316:13000013
#08310:41
#08415:0013001300130013
#08418:00130013
#0841b:1313
#08412:2323
#08517:00130000
#0851b:1300002300001300
#08512:23130013
#08516:0000002300000000
#08616:13130000
#08612:0013001300000000
#08615:0000000000130013
#08618:00000013
#0861b:0013
#0861a:24240000
#08712:1300000000131300
#08716:0000001300000000
#0871b:0000131300000000
#08717:13000013
#08818:0013001300130013
#08815:00130013
#08812:1313
#0881b:2323
#08916:00130000
#08912:1300002300000000
#0891b:23130000
#08917:0000002300000000
#09018:0000000000130013
#09015:00000013
#0901b:0013
#09016:0014001400000000
#09012:24240000
#0901a:24
#09117:0000131300000000
#09116:1300000000131300
#0911b:23000023
#09112:0000002300000000
#09215:0013001300130013
#09218:00130013
#09212:2323
#0921b:2323
#09317:00130023
#09312:23130023
#09316:0000002300000000
#0931b:2300002300000000
#09415:0000000000130013
#09418:00000013
#09412:2413
#09416:0014001400000000
#0941a:24240000
#09516:0000131300000000
#09517:1300000000131300
#09512:23000023
#0951b:0000002300000000
#09618:0013001300130013
#09615:00130013
#0961b:2323
#09612:2323
#09716:00130000
#0971b:23130023
#09717:0000002300000000
#09712:2300002300002300
#01018:13130000
#0101a:0013000000000000
#01015:0000001300000000
#01012:00001313
#01014:0000000000130000
#0101b:0000000000000013
#03216:13
#0321a:0000132300000000
#03219:0000000000132300
#0321b:23
#03318:1323000000000000
#0331b:0000001323001300
#03416:13
#03412:00000013
#03419:0000132300000000
#03417:0000000000132300
#0341b:23
#09816:13
#10316:0000000000130000
#10312:0013
#1031b:0000000000130000
#10217:13
#10210:41
#10412:1300001313000013
#10415:0013000000130000
#1041b:0013130000131300
#10418:0000001300000013
#10512:13000023
#10515:0000131300000000
#1051b:00130023
#10715:0000000000130000
#10718:0013
#1071b:0000000000130000
#10615:13
#11118:0000000000130000
#11115:0013
#11112:0000000000130000
#11018:13
#10818:1300001313000013
#1081b:0013000000130000
#10815:0013130000131300
#10812:0000001300000013
#1091b:00130023
#10915:0000132300000000
#10912:00000023
#10918:23
#11215:1300001313000013
#11212:0013000000130000
#11218:0013130000131300
#1121b:0000001300000013
#11312:00130000
#11318:0000132300000000
#11315:23
#11418:0000130013000013
#1141b:00000013
#11415:0000001300000000
#11518:0013001300000013
#1151b:00130000
#11515:13
#11512:0000001300000000
#11618:1313
#11612:1300130000000013
#11615:0000001300000000
#1161b:0000000000130013
#11718:00130000
#11715:0013001300000000
#11815:0000130000000013
#11812:00000013
#1181b:1313
#11818:0013001300000000
#11915:0013001300000013
#11912:00130000
#11918:13
#1191b:0000001300000000
#12015:1313
#1201b:13130000
#12018:0000001300000000
#12012:0000000000130000
#12013:0000000000000012
#12115:12
#12117:0012000000000000
#12119:00120000
#1211b:0000001200000000
#00052:0013
#00152:0013
#01857:0000005300000000
#0185b:13
#02857:53
#03857:53
#0385b:0023000000000000
#03852:34340000
#0395b:13000013
#03952:0000001300000000
#04958:13
#0495b:0013
#06558:52
#06556:0052
#0655c:0052
#06755:0000005300000000
#06958:0000005300000000
#07352:13
#1015b:13
#10158:0000001300000000
#0025b:0013
#01956:00000053
#0195b:00000053
#01452:13
#01455:0000000000000053
#01552:23
#0205b:00130013
#0215b:00130013
#02252:00130013
#02352:00130013
#0235b:00000053
#02357:0000000000000023
#02458:00130013
#02558:00130013
#02655:00130013
#02755:00130000
#03057:53
#0305b:00000023
#04152:0000001300000000
#04256:63
#04252:0023000000000000
#0425a:44440000
#04352:13000013
#0435b:0000001300000000
#0455b:0000001300000000
#0465b:5353
#04658:0023000000230000
#04655:00530053
#04652:0000002300000023
#0475b:5300000000530000
#04758:0023000000000000
#04755:00530000
#04752:0000002300000000
#05355:13
#05352:0013
#05052:6363
#05055:0023000000230000
#05058:00630063
#0505b:0000002300000023
#05152:6300000000630000
#05155:0023000000000000
#05158:00630000
#0515b:0000002300000000
#05958:52
#05956:0000005200000000
#06356:62
#06358:0000006200000000
#06454:52525200
#06453:0022000000220000
#06455:0000002200000000
#0645a:0000002200000000
#06459:0052
#06458:0000000000220000
#07552:0000005300000000
#07556:00000000000000000023000000000000
#0795b:0000006300000000
#07957:00000000000000000023000000000000
#08257:53530000
#0825b:0023002300000000
#08252:34340000
#0835b:13000013
#08352:0000001300000000
#08656:63630000
#08652:0023002300000000
#0865a:44440000
#08752:13000013
#0875b:0000001300000000
#09056:0024002400000000
#09052:34543400
#0905a:54440000
#03256:63
#03456:63
#03452:00000023
#09952:0000000000130000
#1035b:0000000000130000
#10552:13
#10555:0000001300000000
#1075b:0000000000130000
#10752:1313
#10758:00130000
#11152:0000000000130000
#1115b:1313
#11155:00130000
#11652:13
#1165b:0000000000000053
#1205b:13
#09456:0024002400000000
#0945a:44644400
#09452:64340000
#09356:0000001300000000
#0935b:4300001300000000
#0915b:13000013
#09152:0000001300000000
#0925b:4343
#09757:0000001300000000
#09752:3300001300000000
#09552:13000013
#0955b:0000001300000000
#09652:3333
#10958:13
#10955:0000001300000000
#11355:13
#11358:0000001300000000
#10658:00130013
#10652:0013
#11055:00130013
#1105b:0013
#004380:1353530000000000
#004390:00530053000000000000000000000000
#0043b0:0000000033535300
#0043a0:00000000000000000053005300000000
#005380:3353530000000000
#005390:00530053000000000000000000000000
#0053b0:0000000033532300
#0053a0:00000000000000000053005300000000
#006350:1353530000000000
#006340:00530053000000000000000000000000
#006320:0000000033535300
#006330:00000000000000000053005300000000
#007350:3353530000000000
#007340:00530053000000000000000000000000
#007320:0000000033532300
#007330:00000000000000000053005300000000
#0083b0:13535353230000000000000000000000
#0083a0:0053005300530053000000000000000000000000000000000000000000000000
#008350:00000000000000001353535323000000
#008340:0000000000000000000000000000000000530053005300530000000000000000
#009390:13535353230000000000000000000000
#009380:0053005300530053000000000000000000000000000000000000000000000000
#009330:00000000000000001353535323000000
#009320:0000000000000000000000000000000000530053005300530000000000000000
#010320:13535353230000000000000000000000
#010330:0053005300530053000000000000000000000000000000000000000000000000
#010380:00000000000000001353535323000000
#010390:0000000000000000000000000000000000530053005300530000000000000000
#011340:13535353230000000000000000000000
#011350:0053005300530053000000000000000000000000000000000000000000000000
#0113a0:00000000000000001353535323000000
#0113b0:0000000000000000000000000000000000530053005300530000000000000000
#014350:0000000000000013
#015320:53
#015350:0023000000000000
#018370:0000001300000000
#0183b0:0000000000230000
#019360:00000000000000001353535333000000
#019350:0000000000000000000000000000000000530053005300530000000000000000
#020320:23
#0193b1:00000013
#020371:23
#0233b1:00000000000000000000000013330033
#023371:0000000000000033
#0243b1:23
#028371:13
#0293b1:00330033
#029371:0033
#030371:33
#0303b1:00000053
#031371:0023
#032361:13
#033321:00330033
#033361:0033
#034361:33
#034321:00000053
#035361:0023
#036361:12220000
#036341:0000001200220000
#036321:00000012
#037321:22
#037341:0012002200000000
#038371:13230000
#0383b1:0053000000000000
#042361:13230000
#042321:0053000000000000
#0463b1:13230000
#046381:0053000000000000
#046350:00132300
#046320:0000005300000000
#0463b1:00001323
#046381:0000000000530000
#046350:00000013
#046320:0000000000000053
#047350:23
#0473b1:13230000
#047381:0053000000000000
#047350:00132300
#047320:0000005300000000
#0473b0:0000000000130000
#048370:23
#050320:13230000
#050350:0053000000000000
#050381:00132300
#0503b1:0000005300000000
#050320:00001323
#050350:0000000000530000
#050381:00000013
#0503b1:0000000000000053
#051381:23
#051320:13230000
#051350:0053000000000000
#051381:00132300
#0513b1:0000005300000000
#051321:0000000000130000
#052361:23
#059381:12
#0593c1:00000022
#059360:0000001200000000
#059320:00000022
#063360:12
#063320:00000022
#063381:0000001200000000
#0633c1:00000022
#064341:12525222
#064331:0052000000520000
#064351:0000005200000000
#0643a0:0000001200000000
#064390:00005222
#064380:0000000000520000
#065380:12
#0653c0:0000002200000000
#0653c0:0012
#065380:00000022
#065361:0012
#065321:00000022
#067351:0000001300000000
#067321:0000000000000023
#069381:0000001300000000
#0693b1:00000023
#075321:0000001300002300
#075361:00000000000000000053000000000000
#0793b1:0000001300002300
#079371:00000000000000000053000000000000
#082371:13332300
#0823b1:0053005300000000
#086361:13332300
#086321:0053005300000000
#0903a1:14240000
#090361:0054000000000000
#090320:00142400
#090360:0000005400000000
#094320:14240000
#094360:0054000000000000
#0943a1:00142400
#094361:0000005400000000
#0983b1:13
#098371:0053230000000000
#098320:00130000
#098360:0000005323000000
#0983b1:0013
#098371:0000000000532300
#098320:00000013
#098360:0000000000000053
#099360:23
#0993b1:13
#099371:0053230000000000
#099320:00130000
#099360:0000005323000000
#102320:13
#102360:0053230000000000
#1023b1:00130000
#102371:0000005323000000
#102320:0013
#102360:0000000000532300
#1023b1:00000013
#102371:0000000000000053
#103371:23
#103320:13
#103360:0053230000000000
#1033b1:00130000
#103371:0000005323000000
#1063b1:13
#106381:0053230000000000
#106350:00130000
#106320:0000005323000000
#1063b1:0013
#106381:0000000000532300
#106350:00000013
#106320:0000000000000053
#107320:23
#1073b1:13
#107381:0053230000000000
#107350:00130000
#107320:0000005323000000
#110320:13
#110350:0053230000000000
#110381:00130000
#1103b1:0000005323000000
#110320:0013
#110350:0000000000532300
#110381:00000013
#1103b1:0000000000000053
#1113b1:23
#111320:13
#111350:0053230000000000
#111381:00130000
#1113b1:0000005323000000
#1163b1:0000000000000013
#117381:0023000000000000
