This file was generated by Ched 2.7.0.0.
#TITLE ""
#ARTIST ""
#DESIGNER ""
#DIFFICULTY 0
#PLAYLEVEL
#SONGID ""
#WAVE ""
#WAVEOFFSET 0
#JACKET ""
#REQUEST "ticks_per_beat 480"
#00002: 4
#BPM01: 210
#00008: 01
#TIL00: ""
#HISPEED 00
#MEASUREHS 00
#00018:13
#00015:0000130013000013
#0001b:0013
#00118:0013000000000000
#00115:00131300
#0011b:0013
#01218:0000130013000013
#01212:13000013
#0121b:13
#01215:0000001300000000
#0131b:0013000000000000
#01312:00130000
#01318:0000001300000000
#01315:1300000000000013
#01415:0000130013000013
#01418:0000001300000000
#0141b:1300000000130000
#01412:0000000000130000
#01518:00130000
#01515:0000001300000000
#01818:00130000
#01815:0000001300000000
#0181b:0000000000000013
#01812:13
#01918:13130000
#01915:0013000000000000
#0191b:0000001300000000
#0281b:13
#03516:0000000000000012
#03614:00120000
#03618:0000001200000000
#03616:0000000000120000
#0361a:12000012
#03718:0012000000000000
#0371a:0012
#03716:0000001212000000
#03714:12
#0381b:0013
#03815:0000000000130013
#03818:24000013
#03814:00240000
#03810:41
#0391b:13000013
#03918:0000001300000000
#03915:0000000000130000
#03912:00130000
#04012:1313
#04018:0013000000130000
#04015:00130013
#0401b:0000001300000013
#04112:1300001300001300
#0411b:00000013
#04118:00130000
#0451b:1300001300001300
#04512:00000013
#04515:00130000
#04815:0013001300000000
#04818:0000130000000013
#04812:00000013
#0481b:0013
#04912:13000013
#04915:00131300
#0491b:0000001300001300
#05412:1313
#05418:0013000000130000
#05415:00130013
#0541b:0000001300000013
#05410:41
#05512:13131313
#0551b:0013000000000000
#05519:0000001300000000
#05517:0000000000130000
#06418:1300000000000013
#06415:00130013
#0641b:0000001300000000
#06412:0000000000130000
#0651b:13
#06512:0013
#06612:13000013
#06618:0013000000130013
#06615:00131300
#0661b:0000001300000000
#06715:1300001300000000
#0671b:0000130000000013
#06815:1313
#06818:0013001300000013
#06812:00130013
#0681b:0000000000130000
#06915:13130000
#06918:0000001300000000
#0691b:0013000000000000
#07015:13001313
#07018:0013001300000013
#07012:00130000
#0701b:0000000000130000
#07010:41
#07112:13130000
#0711b:0013001300000000
#07114:0000000000000014
#07218:0000142400001300
#07212:0000000000130000
#07215:0000000000000013
#07214:24
#0731b:13
#0741b:2313
#07415:1300000000130000
#07418:00130013
#07412:0000230000000013
#0741f:11
#0751b:13
#07515:00130000
#07518:0000001300000000
#07612:1313
#07615:0013000000130000
#0761b:00130013
#07618:0000001300000013
#07715:13
#0771b:00000013
#07712:0000002400001300
#0771a:00240000
#1001b:1313
#10015:0013000000130000
#10018:00130013
#10012:0000001300000013
#10118:13
#1011b:0000001300002300
#10115:00130000
#10112:00000023
#00312:0013
#00318:0000130000130000
#00315:0013000000001300
#0031b:0000000000000013
#00415:1300130000130000
#00418:0013000013001300
#00512:13130000
#00518:0013000000000000
#0051b:00001313
#00515:0000000000130000
#01615:0000130000000013
#01612:0013
#0161b:0013000000001300
#01618:0000001300000000
#01712:0013000000000000
#0171b:00130000
#01715:0000001300000000
#01718:1300000000000013
#0461b:13
#04618:0013000000000000
#04615:0013
#04612:0000000000130000
#0471b:13
#04718:0013000000130000
#04715:0013
#08218:0000000000130013
#08215:00000013
#08212:2413
#0821a:00240000
#0821f:21
#08312:13000013
#08315:0000001300000000
#08318:0000000000130000
#0831b:00130000
#08310:41
#08415:0013001300130013
#08418:00130013
#0841b:2323
#08518:0000132300000000
#0851b:23000013
#08512:0000132300001300
#09018:0000260000130013
#09015:00000013
#09012:2613
#09215:0013000000130000
#09218:00130013
#09212:0000001300000013
#0921b:2323
#09118:0000000000130000
#0911b:00130000
#09112:24000024
#09115:0000002400000000
#09312:00130023
#09315:0000002600000000
#0931b:23000023
#09912:0014
#0991a:0000000000140000
#10712:0014
#10716:0000000000140000
#10815:1313
#10812:0013000000130000
#10818:00130013
#1081b:0000001300000013
#10915:00130000
#10912:26000023
#1091b:00000023
#10918:0000002600000000
#11412:00000013
#11418:0000000000000013
#1141b:00130000
#1151b:0013000000000000
#11512:00130000
#11515:1300000000000013
#11518:0000001300000000
#11612:00130000
#11615:0000001300000013
#11618:0013
#1161b:1300000000130000
#11718:00130000
#11715:0000001300000000
#11815:0000130013000013
#11818:0013001300000000
#1181b:00000013
#1201b:00130000
#12015:0000001300000000
#12018:0013
#12012:1300000000130000
#1201a:0000000000000012
#11918:1300000000000013
#11912:0013000000000000
#1191b:00130000
#11915:0000001300000000
#12115:12
#12119:0012000000000000
#12114:00120000
#12118:0000001200000000
#00215:13
#00218:0000130013000013
#00212:0013
#00615:1300130000130000
#00618:0013000013001300
#00712:13130000
#00718:0013000000000000
#0071b:00001313
#00715:0000000000130000
#02012:00130000
#02018:00130013
#0201b:0013
#02015:0000000013000013
#02010:41
#0211b:0013001300000000
#02115:00130000
#02112:0000000000000013
#02218:1300001300130000
#02218:0000001300000000
#02215:00131300
#02212:0000000000000013
#02318:00130000
#02315:0000001300000000
#0241b:0013000000000000
#02415:00130000
#02418:00001313
#02412:0000000000130013
#0251b:0013001300000000
#02515:00130000
#02512:0000000000000013
#02618:13
#02615:00131300
#0261b:0000001300130000
#02612:0000000000000013
#02718:13000013
#02715:0013000000000000
#0271b:00130000
#02712:0000001300001300
#03012:13
#03016:00000013
#03212:13
#0341b:13
#03417:00000013
#04212:0013
#04218:0000240000130013
#04215:00000013
#04214:24
#04312:13000013
#04315:0000001300000000
#04318:0000000000130000
#0431b:00130000
#0441b:1313
#04415:0013000000130000
#04418:00130013
#04412:0000001300000013
#05218:0013001300000000
#05215:0000130000000013
#0521b:00000013
#05212:0013
#0531b:13
#05318:00131300
#05312:0000001300000000
#05319:00000024
#05313:00000024
#05012:13
#05015:0013000000000000
#05018:0013
#0501b:0000000000130000
#05112:13
#05115:0013000000130000
#05118:0013
#0561b:1313
#05615:0013000000130000
#05618:00130013
#05612:0000001300000013
#0571b:13131313
#05712:0013000000000000
#05714:0000001300000000
#05716:0000000000130000
#05812:1313
#05818:0013001300130000
#05815:0000130000000013
#0591b:13
#05912:00130000
#05918:0000001300000000
#05915:0000000000000013
#06018:1313
#06012:0013000000130000
#0601b:00130013
#06015:0000001300000013
#06118:1300001300000000
#06112:00130000
#0621b:1313
#06215:0013000000130000
#06218:00130013
#06212:0000001300000013
#0631b:13
#06315:00130000
#06318:0000001300000000
#06312:0000000000000013
#07812:2313
#07818:1300000000130000
#07815:00130013
#0781b:0000230000000013
#07912:13
#07918:00130000
#07915:0000001300000000
#0801b:1313
#08018:0013000000130000
#08012:00130013
#08015:0000001300000013
#08118:13
#08112:00240000
#0811a:0000002400000000
#08615:0000000000130013
#08618:00000013
#0861b:0013
#0861a:24
#08612:00240000
#0871b:13000013
#08718:0000001300000000
#08715:0000000000130000
#08712:00130000
#08818:0013001300130013
#08815:00130013
#08812:2323
#08915:0000132300000000
#0891b:0000132300000000
#08912:23
#09415:0000000000130013
#09418:26000013
#0941b:0013
#09412:00260000
#09618:0013000000130000
#09615:00130013
#0961b:0000001300000013
#09612:2323
#09515:0000000000130000
#09512:00130000
#0951a:24000024
#09517:0000002400000000
#0971b:00130023
#09712:23000023
#09715:0000002600000000
#10412:1313
#10418:0013000000130000
#10415:00130013
#1041b:0000001300000013
#10515:13
#10512:0000001300002300
#10518:00130000
#1051b:00000023
#1031a:0014
#10312:0000000000140000
#1111a:0014
#11116:0000000000140000
#11218:1313
#1121b:0013000000130000
#11215:00130013
#11212:0000001300000013
#11318:26130000
#11312:0000002600000000
#10210:41
#0005b:0013
#0015b:0013
#0145b:13
#01455:0000000000000063
#01852:13
#01855:0000006300000000
#0285b:63
#0395b:13000013
#03958:0000001300000000
#0465b:53
#04658:0023000000000000
#04655:0053
#04652:0000000000230000
#0475b:53
#04758:0023000000630000
#04952:13
#04955:0013
#0655b:63
#06552:0063
#06755:0000005300000000
#06958:0000005300000000
#0735b:13
#07558:0000006300000000
#08352:13000013
#08355:0000001300000000
#08252:34
#0825a:00440000
#09155:0000001400000000
#09152:14000014
#09355:0000001600000000
#0935b:13
#04152:0000001300000000
#0995a:0000000000140000
#10158:13
#1015b:0000001300000000
#10756:0000140000140000
#10656:00140014
#10952:16
#10958:0000001600000000
#1165b:13
#11655:0000000000000053
#12052:13
#00252:0013
#02252:0000000000000053
#03052:53
#03056:00000023
#03252:53
#0345b:63
#03457:00000023
#03858:14
#03854:00140000
#04352:13000013
#04355:0000001300000000
#0455b:0000001300000000
#04254:14
#04258:00140000
#0535b:13
#05358:0013
#05052:63
#05055:0023000000000000
#05058:0063
#0505b:0000000000230000
#05152:63
#05155:0023000000530000
#07955:0000005300000000
#0875b:13000013
#08758:0000001300000000
#0865a:44
#08652:00340000
#09052:36
#09058:00460000
#0925b:1313
#09755:0000001600000000
#09752:13
#0955a:14000014
#09557:0000001400000000
#09652:1313
#09458:46
#09452:00360000
#10555:13
#10552:0000001300000000
#10352:0000000000140000
#11156:0000140000140000
#11358:16
#11352:0000001600000000
#11056:00140014
#1145b:00530000
#008320:13535353530000000000000000000000
#008330:0053005300530053000000000000000000000000000000000000000000000000
#008350:00000000000000003353535323000000
#008360:0000000000000000000000000000000000530053005300530000000000000000
#0093b0:13535353530000000000000000000000
#0093a0:0053005300530053000000000000000000000000000000000000000000000000
#009380:00000000000000003353535323000000
#009370:0000000000000000000000000000000000530053005300530000000000000000
#010320:13535353230000000000000000000000
#010330:0053005300530053000000000000000000000000000000000000000000000000
#010380:00000000000000001353535323000000
#010390:0000000000000000000000000000000000530053005300530000000000000000
#011350:13535353230000000000000000000000
#011340:0053005300530053000000000000000000000000000000000000000000000000
#0113b0:00000000000000001353535323000000
#0113a0:0000000000000000000000000000000000530053005300530000000000000000
#014350:0000000000000013
#015320:0023000000000000
#018350:0000001300000000
#018320:0000000000230000
#022320:0000000000000013
#023350:0023000000000000
#0283b0:13
#029370:00330023
#0293b0:0033
#030320:13
#030360:00000053
#031320:0023
#032320:13
#033360:00330023
#033320:0033
#0343b0:13
#034370:00000053
#0353b0:0023
#0463b0:13230000
#046380:0053000000000000
#046350:00001323
#046320:0000000000530000
#0473b0:13230000
#047380:0053000000000000
#047380:0000000000130000
#0483b0:23
#050320:13230000
#050350:0053000000000000
#050380:00001323
#0503b0:0000000000530000
#051320:13230000
#051350:0053000000000000
#051350:0000000000130000
#052320:23
#0653b0:13
#065370:0000002300000000
#065320:0013
#065360:00000023
#067350:0000001300000000
#067320:0000000000230000
#069380:0000001300000000
#0693b0:00000023
#075380:0000001300000000
#0753b0:00000023
#079350:0000001300000000
#079320:00000023
#0983a0:14
#098360:0054240000000000
#098320:0014
#098360:0000000000542400
#0993a0:14
#099360:0054240000000000
#102320:14
#102360:0054240000000000
#1023a0:0014
#102360:0000000000542400
#103320:14
#103360:0054240000000000
#1063a0:14
#106360:0054240000000000
#106320:0014
#106360:0000000000542400
#1073a0:14
#107360:0054240000000000
#110320:14
#110360:0054240000000000
#1103a0:0014
#110360:0000000000542400
#111320:14
#111360:0054240000000000
#1143b0:00130000
#114380:0023
#116350:0000000000000013
#117320:0023000000000000
