This file was generated by Ched 2.7.0.0.
#TITLE ""
#ARTIST ""
#DESIGNER ""
#DIFFICULTY 0
#PLAYLEVEL
#SONGID ""
#WAVE ""
#WAVEOFFSET 0
#JACKET ""
#REQUEST "ticks_per_beat 480"
#00002: 4
#BPM01: 210
#00008: 01
#TIL00: ""
#HISPEED 00
#MEASUREHS 00
#0201a:2414
#02014:00140000
#02010:41
#02114:1414
#0211a:00140000
#02218:1414
#02212:00140000
#0241a:14
#02418:0014
#02414:00140000
#02512:14
#02514:0014
#02518:00140000
#02618:14
#0261a:0014
#02614:00140000
#02714:14
#02718:00140000
#02712:0014
#0381a:24001414
#03814:0000240000140000
#03810:41
#04212:24001414
#04218:0000240000140000
#0491a:00140000
#04912:14
#04914:0014
#04918:00000014
#0661a:1414
#06614:00140014
#06812:1414
#06818:00140014
#0771a:14
#09212:0000160000160016
#09218:16001616
#09412:26001616
#09418:0000260000160000
#09612:16001616
#09618:0000160000160016
#08218:00001414
#08214:0000000000140000
#0821a:24
#08212:00240000
#0821f:21
#08418:14
#08412:00140000
#0841a:0014
#08414:00000014
#0041a:14
#00414:0014
#0051a:14
#00614:14
#0061a:0014
#00714:14
#00812:0014
#00818:14
#00918:14
#01012:14
#01018:0014
#01112:14
#0121a:14
#01214:0014
#01318:14
#01412:14
#01418:0014
#01514:14
#01618:14
#01614:0014
#0171a:14
#01818:0014
#01814:14
#01912:14
#02818:14
#0281a:00000014
#03012:00000014
#03014:14
#0321a:14
#03218:00000014
#03414:00000014
#03412:14
#04018:1414
#04012:00140014
#04814:0014
#0481a:00140000
#04818:00000014
#04812:14
#06413:1414
#06414:00140000
#06412:00000014
#06513:14
#06514:00140000
#0701a:14
#07019:0014
#07013:00140000
#07012:00000014
#07010:41
#07212:14
#07213:0014
#07219:00140000
#0721a:00000014
#07612:14
#07616:0014
#0801a:14
#08016:0014
#08112:14
#0741a:0014
#07418:14
#0741f:11
#07812:0014
#07814:14
#08614:00001414
#08618:0000000000140000
#08612:24
#0861a:00240000
#08814:14
#0881a:00140000
#08812:0014
#08818:00000014
#09018:26001616
#09012:0000260000160000
#09818:1414
#09814:00140014
#1001a:14
#10014:00140000
#10012:00000014
#10018:0014
#10214:1414
#10218:00140014
#10210:41
#0521a:14
#05212:00140000
#05218:0014
#05214:00000014
#0581a:14
#05812:0014
#05918:14
#06012:14
#0601a:0014
#06114:14
#0991a:14
#09912:0014
#09916:00140000
#10312:14
#10316:00140000
#1031a:0014
#02312:1414
#02318:00140000
#04414:1414
#0441a:00140014
#0531a:14
#05312:00140000
#05318:0014
#05314:00000024
#0621a:14
#06212:0014
#06318:14
#10914:00140000
#1091a:14
#10918:0014
#10912:00000014
#10818:0014
#10814:00140000
#10812:00000014
#1081a:14
#11212:14
#11218:00140000
#11214:0014
#1121a:00000014
#1051a:00000014
#10518:00140000
#10512:14
#10514:0014
#10414:0014
#10418:00140000
#1041a:00000014
#10412:14
#11312:14
#11314:0000341400000000
#10118:0000341400000000
#1011a:24
#10712:0024
#1111a:0024
#03912:0000343400000000
#0411a:0000343400000000
#0431a:0000343400000000
#04512:0000343400000000
#05410:41
#08310:41
#03454:00000024
#03452:54
#03258:00000024
#0325a:64
#03052:00000024
#03054:64
#0285a:00000024
#02858:54
#06453:5454
#06452:00000024
#06454:00240000
#06553:54
#06554:00240000
#0745a:0024
#07458:54
#07854:64
#07852:0024
#03753:0014
#03759:0014
#09058:16
#09452:16
#0475a:0014
#05152:0014
#1115a:0014
#10752:0014
#11354:0000002400000000
#11352:54
#10158:0000002400000000
#1015a:64
#0825a:14
#08652:14
#000380:14
#0013a0:0024
#002340:14
#003320:0024
#028380:14
#0283a0:00000054
#029380:0024
#030340:14
#030320:00000054
#031340:0024
#0323a0:14
#032380:00000054
#0333a0:0024
#034320:14
#034340:00000054
#035320:0024
#036330:14000034
#037330:0024
#036391:1400003400000000
#037391:0034000024000000
#039341:14
#039321:0000343400002400
#041381:14
#0413a1:0000343400002400
#043381:14
#0433a1:0000343400002400
#045341:14
#045321:0000343400002400
#0463a1:1434
#046381:00340034
#0473a1:3424
#047381:00340000
#050321:1434
#050341:00340034
#051321:3424
#051341:00340000
#054381:14
#0553a1:3424
#056341:14
#057321:3424
#064331:1434
#064341:00540000
#064321:00000054
#065331:3424
#065341:00540000
#0673a1:1424
#069321:1424
#071381:1424
#073341:1424
#074381:14
#0743a1:0054
#075381:3424
#078341:14
#078321:0054
#079341:3424
#083321:14
#083341:0000343400002400
#085381:14
#0853a1:0000343400002400
#0873a1:14
#087381:0000343400002400
#089341:14
#089321:0000343400002400
#091321:1600363600002600
#093381:1600363600002600
#095381:1600363600002600
#097321:1600363600002600
#1013a1:14000024
#101381:0000343400000000
#106321:1434
#106341:00340034
#107321:3424
#107341:00340000
#1103a1:1434
#110381:00340034
#1113a1:3424
#111381:00340000
#113321:14000024
#113341:0000343400000000
#114381:14
#114391:0000003400000000
#1143a1:00000034
#115381:0024
#116341:14
#116331:0000003400000000
#116321:00000034
#117341:0024
#1183a1:14
#118391:0000003400000000
#118381:00000034
#1193a1:0024
#120321:14
#120331:0000003400000000
#120341:0000000000003434
#121341:3434342400000000
