This file was generated by Ched 2.7.0.0.
#TITLE ""
#ARTIST ""
#DESIGNER ""
#DIFFICULTY 0
#PLAYLEVEL
#SONGID ""
#WAVE ""
#WAVEOFFSET 0
#JACKET ""
#REQUEST "ticks_per_beat 480"
#00002: 4
#BPM01: 93
#00008: 01
#TIL00: ""
#HISPEED 00
#MEASUREHS 00
#0011a:14
#00114:0014
#00218:14
#00212:0014
#0031a:14
#00314:0014
#00418:14
#00412:0014
#0051a:1414
#00510:41
#00614:1414
#00718:1414
#00812:1414
#0091a:14
#00914:0014
#0101a:14
#01014:0014
#01118:14
#01112:0014
#01218:14
#01212:0014
#0131a:1414
#01310:41
#01518:1414
#0171a:14
#01714:0014
#01818:14
#01812:0014
#02112:00160016
#02118:2616
#02110:41
#02218:1616
#02212:00160016
#02318:16
#02512:00160016
#02518:0016
#02618:00160016
#02612:0016
#02712:00160016
#02718:0016
#02710:41
#02818:16160000
#02912:14
#02914:00000014
#0291f:11
#0311a:14
#03118:00000014
#03318:00160016
#03312:2616
#0331f:21
#03412:1616
#03418:00160016
#03410:41
#03512:16
#03718:00160016
#03712:0016
#03812:00160016
#03818:0016
#03918:00160016
#03912:0016
#04012:16160000
#0411a:14
#04118:00000014
#04110:41
#04312:14
#04314:00000014
#0451a:14
#04614:14
#04718:14
#04812:14
#02952:54
#02954:00000024
#0315a:64
#03158:00000024
#0415a:64
#04158:00000024
#04352:54
#04354:00000024
#0455a:54
#04654:64
#04758:64
#04852:64
#014340:1424
#016320:1424
#019390:1424
#020330:1424
#023320:0016
#024320:26
#024380:0016
#025380:26
#028380:00001626
#029320:14
#029340:00000054
#030320:0024
#0313a0:14
#031380:00000054
#0323a0:0024
#035380:0016
#036380:26
#036320:0016
#037320:26
#040320:00001626
#0413a0:14
#041380:00000054
#0423a0:0024
#043320:14
#043340:00000054
#044320:0024
#0453a0:14
#045380:00000024
#046340:14
#046320:00000024
#047380:14
#0473a0:00000024
#048320:14
#048340:00000024
#049380:14000024
