This file was generated by Ched 2.7.0.0.
#TITLE ""
#ARTIST ""
#DESIGNER ""
#DIFFICULTY 0
#PLAYLEVEL
#SONGID ""
#WAVE ""
#WAVEOFFSET 0
#JACKET ""
#REQUEST "ticks_per_beat 480"
#00002: 4
#BPM01: 93
#00008: 01
#TIL00: ""
#HISPEED 00
#MEASUREHS 00
#00112:13000000130000000000000000000013
#00116:0013000000000000
#00115:00000000000000001300130000130000
#00118:00000013
#00117:13130000
#0011b:00001300000000000000000000130000
#0041b:130000000000130000000000130000000013000000000000
#00418:000000130000000000000000000023000000000013000000
#00412:130000000000002300000000
#00414:0013001300000000
#00416:00130000
#0051b:1300001300001300
#00518:000000000000130000000000130000130000000013000013
#00515:000000000013000000000013000013000000000000130000
#00512:0000001300001300
#00510:41
#0061b:000013000000230000000000000000130000000000130000
#00615:000000130000000000130000000000130000000023000000
#00612:230000000000130000000000130000000023000000000000
#00618:000000000000000000000013000000000000130000000023
#00715:130000000000130000000013000000000000000000000000
#00718:000000000013000000000000130000000000130000000000
#00712:0013001300130013
#0071b:001300
#0081b:13131323
#00812:000000130000000000130000000000000013000000000000
#00816:00130000
#00817:0013001300000000
#00815:000000000000001300001300
#00818:0000000000230023
#00912:130000000013000000000000000000000000000000000000
#00917:00130000
#00914:001300
#00919:0000001300000000
#00916:000000000000000000000013000000000000000000000000
#0091b:000000000000000000000000130000000000000000000013
#00918:000000000000000000000000000013000000000000130000
#00915:000000130000000000000000000000000000000013000000
#01016:130000000000000000000000000000000023000000130000
#01019:001300000000000000000000
#01014:0013000000000000
#01017:000000000013000000000000000000130000000000000023
#01015:001300
#01012:000000130000002300000000
#0101b:000000000000000000132300
#01115:000000000013000000000013000000130013000000000000
#01118:00131300
#01112:130000000000000000130000000000000000000013000000
#0111b:000000000000000000000000000000001300000000000000000000130000000000000000000000000000130000001300
#01212:131300000000001300000000
#0121b:000000130000000000000000000013000000000000000000
#01215:000000000016000013000000130000000013000013000000
#01218:000000000000000000130013000000000000130000130000
#01312:130000000000000000130000000000000000130000000013
#01318:000000000013000000000013000013000000000000130000
#0131b:130000000000000013000000000000000013000000000000
#01315:000000130013
#01310:41
#01512:000000130000000013000000000013000000000000130000
#01516:240000000000000000000000000000000000000000000013
#01518:000000130000000000130000000000130000000013000000
#01515:000000000013000000000013000000000000130000000000
#0151b:13131300
#01718:13001313
#0171b:000000000013000000000000000013000000000013000000
#01716:00130000
#01712:0000001300130013
#01717:001300
#01715:000000000000000000000013000000000013000000000013
#00215:0013000000130013
#00212:13131313
#0021b:13
#00219:0013001300000000
#00217:00130000
#01818:130000000000000000000023000000000023000000000023
#01812:000000000023000000000000000023000000000023000000
#0181b:0000002300230023
#01815:00002323
#01817:00230000
#01816:002300
#01915:230000000000000013000013000000130000000000000000
#01918:000000000000000000130000130000000013000000000000
#01916:000000000000000000000000000000000000000000130013
#0191b:000000000013
#01912:000000000000000000000000000000000013000000000000
#02016:0000001300000000
#0201b:13
#02012:00130000
#02017:0013000000000000
#02015:0000000026262600
#02119:0013000000000000
#02114:0000001300000000
#02116:13
#02117:0000130000130013
#0211b:00000013
#0211a:24
#02110:41
#02214:0000000000000013
#02212:0013001300130000
#02216:00130013
#0221b:13001313
#02219:0000000000000013
#02217:0013001300000000
#02312:130000000000000000000000000013000000000000130000
#02315:000000000013000013000013000000000000000000000000
#0231b:000000000013000013000013000000000000130000000033
#02317:1300000000230000
#02318:0023
#02316:00000023
#02416:1300000000230000
#02418:000000000013000013000013000000000000000000230000
#02412:000000000000000000001300000000001300000000001300000000000000000000000000130000000000000000130000
#0241b:000000000000000000000000000000000000000000000000000000001300000000000000000000000000000000130000
#02415:0013000023000023
#02417:00000023
#02612:130000000013000000000000000000000013000000000000
#02617:00130013
#02614:000000001300001300000000
#02619:0000001300130000
#0261b:0000000013000013
#02616:000000000000000000000013000000000000000000000000
#0271b:130000000013000013000000130000000000130000000000
#02712:000000000000000000000000001300000000000000001300000000000000000000000000130000000000000000000000
#02716:000000000013000000000000000000000000000000000000
#02715:000000000000001300000000
#02718:0000000000130000
#02717:000000000000000000000000000000000000001300000000000000000000000000000000000000000000000000000000
#02710:41
#02512:0000000023000013
#0251b:000000000023000000000000000000000023000000000000
#02516:00230023
#02519:000000002300002300000000
#02514:0000002300230000
#02517:000000000000000000000023000000000000000000000000
#02815:130000001300130000130000
#02812:000013000013000000000000000000130000000000130000
#02818:230000000000000023000023000000000000230000000000
#0281b:000023000023000000000000000000230000000000230000
#02917:0013000000000000
#02919:00130000
#0291b:0000001300001300
#02912:0013000000001300
#02915:1300000000130000
#02914:00130000
#02916:0000001300000000
#0291f:11
#0291a:23
#03018:13
#0301b:0013000000001300
#03019:00130000
#03017:0000001300130000
#03012:00130013
#03015:1313
#03016:0000000000000013
#0311b:13000000000000130000000013000000
#03115:00001300001300000000000000000000
#03116:0000000000140000
#03112:13001313
#03118:00000013000000000000000000000000
#03216:0000000000140014
#03212:00000013
#0321b:0000002313001300
#03219:00000023001300000000000000000000
#03217:2313000000000000
#0381b:000000000013000000000000000000000013000000000000
#03816:24130013
#03819:000000001300001300000000
#03814:0000001300130000
#03812:0000000013000013
#03817:000000000000000000000013000000000000000000000000
#0371b:0000000023000013
#03712:000000000023000000000000000000000023000000000000
#03714:000000002300002300000000
#03719:0000002300230000
#03717:00230023
#03716:000000000000000000000023000000000000000000000000
#03918:000000000000001300000000
#03915:0000000000130000
#03912:000000000013000013000000130000000000230000000000
#0391b:000000000000000000000000001300000000000000001300000000000000000000000000230000000000000000000000
#03917:000000000013000000000000000000000000000000000000
#03916:240000000000000000000000000000000000001300000000000000000000000000000000000000000000000000000000
#00318:00000000000000001300130000130000
#00315:00000013
#0031b:13000000130000000000000000000013
#00312:00001300000000000000000000130000
#00317:0013000000000000
#00316:13130000
#03518:000000000013000000000013000000000000000000000000
#03512:000000000013000000000013000000000000130000000033
#0351b:130000000000000013000000000013000000000000130000
#03515:000013230000
#03516:1300000000230000
#03517:00000023
#03617:1300000000230000
#03615:000000000013000000000013000000000000000000230000
#0361b:000000000000000000001300000000000000000000001300000000000000000000000000130000000000000000130000
#03612:000000000000000000000000000000001300000000000000000000001300000000000000000000000000000000130000
#03618:000000130000000013000000230000000000000000230000
#03616:00000023
#0401a:000013000000000013000000000000140000000000140000
#04018:130000000000000000000013000000000000130000000000
#0401b:000000000013000000000000000000000000000000000000
#04012:000000000023000000000000000000240000000000240000
#04015:23002323
#04013:002300002300000000000000
#04612:00001313000000002300000013000000
#04616:23000000001313000000130000000000
#04614:0000000000000013
#0461b:0000000000130000
#04619:0000000000000013
#04617:00000023
#04812:0000000000130013
#04817:23000000001313000000130000001300
#0481b:00001313000000002300000013000000
#04816:00000023
#04915:16
#03314:0013000000000000
#03319:0000001300000000
#03317:13
#03316:0000130000130013
#03312:24000013
#0331f:21
#03419:0000000000000013
#0341b:0013001300130000
#03417:00130013
#03412:13001313
#03414:0000000000000013
#03416:0013001300000000
#03410:41
#04416:0000000000140014
#0441b:00000013
#04412:2313002313001300
#04415:00000023001300000000000000000000
#01415:000013000000000000000013000000000013000000000000
#01418:000000130000000000130000000013000000000000000000
#0141b:23131313
#01412:0000230000130013
#01416:0000000000000024
#0411b:13000013
#04115:0013000013000000
#04118:00000013000000130000140000000000
#04116:00000013
#04112:23000000001300000000000000000000
#04110:41
#04216:0000000000140000
#04212:00000013
#0421b:2313002313001300
#04218:00000023001300000000000000000000
#04312:13000013
#04318:0013000013000000
#04314:0000000000140000
#04317:00000013
#04315:00000013000000130000000000000000
#0431b:23000000001300000000000000000000
#0451b:13000000001300002300000013000000
#04515:00001313000000000000000000000000
#04514:0000000000130000
#04512:24000000000000130000000013000000
#04516:0000000000000014
#04519:0000000000130000
#04517:0000001300000000
#04712:13000000001300002300000013000000
#04718:00001313000000000000000000000000
#04719:0000000000130000
#0471b:00000000000000130000000013000000
#04716:0000001300000014
#04714:0000000000130000
#0471a:24
#01612:0013000013002300
#01615:000000000000000013000000000000230000000000230000
#01618:000000000000002300002300
#0161b:000000000000000000000000000000000023000000000000
#00157:53530000
#0015b:0063000000000000
#00152:13
#0055b:43
#00658:000000000000000000000013000000000000000000000000
#00952:13
#00954:000000000000000000000000000000000014000000000000
#01352:33
#01758:13
#00252:53530000
#00255:0053000000000000
#0215a:14
#02152:00130000
#0215b:0013
#02157:00530000
#02156:63
#02852:0000000000130013
#0285b:0000000000130013
#02652:13
#0275b:130000006300000000430000
#02752:000000000000000000000000002300000000000000000000000000000000000000000000330000000000000000000000
#02756:000000000063000000000000000000000000000000000000
#02757:000000000000000000000000000000000000002300000000000000000000000000000000000000000000000000000000
#02959:00530000
#0295b:0000002300000000
#02957:0023000000000000
#02955:63
#02952:0023000000000000
#02954:00530000
#02956:0000002300000000
#0295a:63
#03058:53
#0305b:0023000000000000
#03059:00630000
#03057:0000002300000000
#0315b:63000013
#03158:00000053000000000000000000000000
#03155:00000000005300000000000000000000
#03152:00000013
#0045b:63630000
#00458:0063000000000000
#00752:0000000000530053
#00758:00005353
#00755:13
#01058:000000000000000000000014000000000000000000000000
#01158:000000000000000000000000530000000013000000000000
#01152:13
#0115b:00000000000000000023000000000000
#01258:0000000000004343
#01252:000000000000003300000000
#01858:13
#01955:13
#01952:000000000000000000000000000000000013000000000000
#01958:0053
#02056:0000002300000000
#02057:0023000000000000
#02052:00530000
#0205b:63
#0225b:2323
#02256:00230000
#02257:0053001300000000
#02252:0013005300130000
#02352:13
#02357:13
#02452:00000000000000000000000000000023
#0245b:00000000000000000000000000000023
#02455:0000000000000063
#02458:0000000000000053
#0405a:0000000000140014
#04052:0000000000140014
#04955:56
#0355b:13
#03556:13
#03357:53
#03356:00630000
#03352:1413
#0335b:00130000
#03457:00230000
#03452:2323
#03456:0063001300000000
#0345b:0013006300130000
#04857:0000000000530053
#0485b:00000053
#00356:63630000
#00352:0053000000000000
#03652:00000000000000000000000000000023
#0365b:00000000000000000000000000000023
#03655:0000000000000063
#03658:0000000000000053
#03956:140000000000000000000000000000000000002300000000000000000000000000000000000000000000000000000000
#03952:000000005300000000330000
#0395b:000000000000000000000000002300000000000000000000000000000000000000000000430000000000000000000000
#03957:000000000053000000000000000000000000000000000000
#03856:14
#0465b:0000000000130000
#04652:00000013
#01455:000000000000000000000013000000000000000000000000
#0415b:63000013
#04158:00000053000000000000000000000000
#04152:00000000005300000000000000000000
#04156:00000013
#04352:53000013
#04355:00000063000000000000000000000000
#0435b:00000000006300000000000000000000
#04357:00000013
#0455b:63000000005300000000000013000000
#04552:14000013
#04555:00000053000000000000000000000000
#04557:0000002300000000
#04752:53000000006300000000000013000000
#0475b:00000013
#04758:00000063000000000000000000000000
#04756:0000002300000000
#0475a:14
#04252:00000013
#0445b:00000013
#01556:14
#01558:0000000000130000
#001370:13330000
#0013b0:0033000023000000
#002320:13330000
#002350:0033002300000000
#0023b0:0013
#002380:0000000000230000
#002380:00000013
#0023b0:0000000000000023
#003360:13330000
#003320:0033000023000000
#0043b0:13330000
#004380:0033002300000000
#004350:000000000000000000132300
#004320:0000000000000013
#005360:23
#007380:0013
#0073b0:0000000000230000
#007321:0000000000130000
#007351:00000023
#007380:00000013
#0073b0:0000000000000023
#007321:0000000000000013
#008351:23
#008381:0000000000000013
#009381:23
#009341:000000000000000000000000000000140024000000000000
#010381:000000000000000000140024000000000000000000000000
#011381:000000000000000000000000130000330023000000000000
#0113b1:00000000000000000053000000000000
#013351:000000132300000000000000
#013351:000000000000000000000000000000130023000000000000
#0163b1:13
#016381:0023000000000000
#0163b1:000000000013000000000000000000000000000000000000
#016381:002300
#0163b1:0000001300000000
#016381:0023
#016351:0000000000000013
#017351:23
#019381:0013
#0193b1:0000000000230000
#0203b1:13230000
#020371:0053000000000000
#020320:00132300
#020360:0000005300000000
#021360:13
#021320:00230000
#021371:00130000
#0213b1:0023
#021360:00001333
#021320:0000000000330033
#022360:23
#0223b1:13230000
#022371:0033000000000000
#022360:00132300
#022320:0000003300000000
#0223b1:0013
#022371:0000000000230000
#023371:0000000000000013
#0233b1:000000000000000000000000000000000000000000000033
#0243b1:23
#024351:0000000000000013
#024321:00000000000000000000000000000053
#025351:23
#024380:0000000000000013
#0243b0:00000000000000000000000000000053
#025380:23
#0253b0:0000000000000013
#026370:23
#026320:0000000000000013
#027360:23
#027360:000000000013000023000000000000000000000000000000
#027320:000000000000000000000000005300000000000000000000000000000000000000000000000000000000000000000000
#0273b1:000000000000000013000023000000000000000000000000
#027371:000000000000000000000000000000000000005300000000000000000000000000000000000000000000000000000000
#0293a1:13
#029371:0053000000000000
#029391:00530000
#0293b1:0000005300000000
#029381:0023
#029350:13
#029320:0053000000000000
#029340:00530000
#029360:0000005300000000
#029330:0023
#030380:13
#0303b0:0053000000000000
#030390:00530000
#030370:0000005300000000
#0303a0:0023
#0313b0:13
#031380:0023000000000000
#031380:00000013000000000000000000000000
#0313b0:00000000002300000000000000000000
#031351:00000000001300000000000000000000
#031321:00000000000000230000000000000000
#032321:1323000000000000
#032341:00000013002300000000000000000000
#032361:0000001323000000
#033371:13
#0333b1:00230000
#033360:00130000
#033320:0023
#033371:00001333
#0333b1:0000000000330033
#034371:23
#034320:13230000
#034360:0033000000000000
#034371:00132300
#0343b1:0000003300000000
#034320:0013
#034360:0000000000230000
#035360:0000000000000013
#035320:000000000000000000000000000000000000000000000033
#036320:23
#036350:0000000000000013
#036320:00000000000000000000000000000053
#037350:23
#036381:0000000000000013
#0363b1:00000000000000000000000000000053
#037381:23
#037361:0000000000000013
#038321:23
#038371:0000000000000013
#0393b1:23
#039371:000000000013000023000000000000000000000000000000
#0393b1:000000000000000000000000005300000000000000000000000000000000000000000000000000000000000000000000
#039320:000000000000000013000023000000000000000000000000
#039360:000000000000000000000000000000000000005300000000000000000000000000000000000000000000000000000000
#0413b0:13
#041380:0023000000000000
#041380:00000013000000000000000000000000
#0413b0:00000000002300000000000000000000
#041321:00000000001300000000000000000000
#041351:00000000000000230000000000000000
#042351:1323000000000000
#042321:00000013002300000000000000000000
#042351:0000001323000000
#043321:13
#043351:0023000000000000
#043351:00000013000000000000000000000000
#043321:00000000002300000000000000000000
#0433b0:00000000001300000000000000000000
#043380:00000000000000230000000000000000
#044380:1323000000000000
#0443b0:00000013002300000000000000000000
#044380:0000001323000000
#0453b0:13
#045380:0023000000000000
#045350:00000013000000000000000000000000
#045320:00000000002300000000000000000000
#0453b1:00000000001300230000000000000000
#045371:0000005300000000
#0463b1:13000000003333000000000000000000
#046371:00003333000000002300000000000000
#047321:13
#047351:0023000000000000
#047381:00000013000000000000000000000000
#0473b1:00000000002300000000000000000000
#047320:00000000001300230000000000000000
#047360:0000005300000000
#048320:13000000003333000000000000000000
#048360:00003333000000002300000000000000
#048370:0000000000130033
#0483b0:00000033
#0493b0:23
#049351:16
#049371:00000022
