This file was generated by Ched 2.7.0.0.
#TITLE ""
#ARTIST ""
#DESIGNER ""
#DIFFICULTY 0
#PLAYLEVEL
#SONGID ""
#WAVE ""
#WAVEOFFSET 0
#JACKET ""
#REQUEST "ticks_per_beat 480"
#00002: 4
#BPM01: 93
#00008: 01
#TIL00: ""
#HISPEED 00
#MEASUREHS 00
#00115:13000000000000000000130000130000
#00118:00001300000000001300000000000013
#0011b:00130013
#00112:00130000
#00518:000000000013000000000000000000000000000000130000
#00515:000000000000130000000000130000000000000000000013
#0051b:0000001300000000
#00512:130000000013
#00510:41
#00618:0013000000000000
#00617:00000013
#00619:0000000000000013
#00615:001300000000000000000000
#00612:000000000000230000000000000000000023000000000000
#00614:000000000023
#00616:000000000000000000000000000000000000000000000023
#0061b:23
#00718:0000131313001300
#00715:000000000013000013000013000000000000000000000000
#0071b:1300000000130013
#00812:0013000013000000
#0081b:00130000
#00816:00130000
#00819:0000001300000000
#00814:0000001300000000
#00817:0013000013000000
#00815:0000000000230023
#00818:00000023
#0091b:1313
#00912:000000000013000000000000000000000000000000130000
#00917:00130000
#00914:001300
#00919:0000001300000000
#00916:000000000000000000000013000000000000000000000000
#00918:0000000000330000
#0101b:13000013
#01015:000013000013000013000000000000000023000000000023
#01018:0013131300130013
#01012:000000000000002300002300
#01115:000000000013000013000013000000000000000000000013
#01118:0000131313000013
#0111b:1300000000330000
#01112:000000000013
#01215:000000000000000013000000000000000013000013000000
#01218:0033000000001313
#0121b:130000000000001300000000
#01212:0000003300000000
#01712:130000000000000000000033000000000000000000130000
#0171b:000000000013000000000000000013000000000000000000
#01715:0000131300131300
#01718:000000000000000013000000000000000013000013000013
#01515:000000000013000000130000000000000000000000000013
#0151b:000000130000003300000000
#01512:00000013
#01518:240000000013
#00215:13
#00218:0013000000000000
#0021b:00130000
#00212:00130000
#01815:130000000000000023000000000000000023000023000023
#01812:000000000023000000000000000023000000000000000000
#01818:0000232300232300
#0181b:000000000000000000000033000000000000000000230000
#01915:000000000000000013000013000000130000000000130000
#01918:230000000000000000130000130000000000000013000013
#02115:0013000000130013
#02112:0000001300000000
#02118:00130013
#0211b:2313
#02110:41
#02312:14000023
#02315:000000000013000013000000230000230000000000130000
#0231b:000000000013000013000000000000000000130000000000
#02318:000000000000000000000013000013000000000000000000
#02418:130000000013000013000000230000230000000000000000
#02412:000000000013000013000000000000000000130000230000
#02415:000000130000000000000013000013000000000000000000
#0241b:0000000000002323
#02612:000000000013000000000013000000000013000000130000
#02618:00131313
#02615:000000001300001300000000
#0261b:0000001300130000
#02812:130033000033000033000033000000130000000000130000
#02814:00000013
#0281b:230033000033000033000033000000230000000000230000
#02819:00000023
#02915:00000013
#02918:0000000000130000
#02912:13
#0291f:11
#0291b:23
#03012:00130013
#03015:1313
#0301b:00130013
#03018:0013000000130000
#03118:1300000000130000
#0311b:00130013
#03112:13000013
#03115:00130000
#02216:0000000000000014
#0221a:00000014
#0221b:13130000
#02218:0013001300000000
#02215:0000000000130000
#04114:2300000013130000
#0411b:00130013
#04112:00130013
#04119:1313000013000000
#04110:41
#04615:0000001300000013
#04618:13002323
#0461b:0013000000130000
#04612:0000000000130000
#04518:0013001300001300
#04515:0000130000130013
#0451b:00132300
#04512:23000013
#04215:0013000000130000
#04218:23130000
#04212:00000013
#0421b:0000001300000000
#02718:0000000013130000
#02715:000000000000000000000013000013000000000000000000
#02712:00000013
#02710:41
#00318:13000000000000000000130000130000
#00315:00001300000000001300000000000013
#00312:00130013
#0031b:00130000
#00418:13
#00415:0013000000000000
#00412:00130000
#0041b:00130000
#01318:000000000013000000000000130000000000000000000013
#01315:000000000000130000000013000000000000000000130000
#0131b:000013000013
#01312:13
#01310:41
#02015:13002323
#02012:0013000000000000
#02018:0000130000230000
#0201b:0000001300000000
#0251b:000000000023000000000023000000000023000000130000
#02515:00232323
#02518:000000002300002300000000
#02512:0000002300230000
#03215:1300000000130000
#03212:00130013
#0321b:13000013
#03218:00130000
#03318:0013000000130013
#0331b:0000001300000000
#03315:00130013
#03312:2313
#0331f:21
#0351a:14
#03518:000000000013000013000000230000230000000000130000
#03512:000000000013000013000000000000000000130000000000
#03515:000000000000000000000013000013000000000000000000
#0351b:00000023
#03615:130000000013000013000000230000230000000000000000
#0361b:000000000013000013000000000000000000130000230000
#03618:000000130000000000000013000013000000000000000000
#03612:0000000000002323
#0381b:000000000013000000000013000000000013000000130000
#03815:23131313
#03818:000000001300001300000000
#03812:0000001300130000
#03416:0000000000000014
#03412:13130014
#03415:0013001300000000
#03418:0000000000130000
#03410:41
#03915:0000000013130000
#03918:230000000000000000000013000013000000000000000000
#0391b:00000023
#03712:000000000023000000000023000000000023000000130000
#03718:00232323
#03715:000000002300002300000000
#0371b:0000002300230000
#0401b:130033000033000033000033000000130000000000130000
#04019:00000013
#04012:230033000033000033000033000000230000000000230000
#04014:00000023
#04319:2300000013130000
#04312:00130013
#0431b:00130013
#04314:1313000013000000
#04418:0013000000130000
#04415:23130000
#0441b:00000013
#04412:0000001300000000
#04818:0000001300000013
#04815:13002323
#04812:0013000000130000
#0481b:0000000000130000
#04715:0013001300001300
#04718:0000130000130013
#04712:00132300
#0471b:23000013
#01415:0013000000000000
#01418:001300000000000000000000
#0141b:00230013
#01414:0000000000000024
#01412:23
#01615:000000000000002300002300
#01618:000000000000000000000000000000000023000000230000
#0095b:1353
#00958:000000000000000000000000000000000013000000000000
#01752:13
#01755:0000005300000000
#0215b:1313
#02158:00130000
#00758:00005353
#0075b:1300000000530053
#0105b:000000000000000000000013000000000000000000000000
#01058:0000005300000000
#0115b:130000000000000000000000000000000013000000000000
#01158:0053
#01855:13
#01858:0000005300000000
#01958:13
#01955:0000000000530000
#01952:000000000000000000000000000000000013000000000000
#02352:14
#02452:0000000000000063
#0245b:0000000000000053
#04658:63
#0465b:0023000000000000
#04252:00000013
#04258:00530000
#0425b:0000002300000000
#04552:13
#00552:13
#00658:000000000000000000000013000000000000000000000000
#0125b:53
#01255:005300
#01352:13
#02055:53
#02058:00530000
#02052:0023000000000000
#0205b:0000002300000000
#0225b:53530000
#02258:0023002300000000
#0255b:0000000000000053
#02658:13
#02652:0000000000000063
#02755:13
#02752:00000013
#02852:53
#0285b:53
#0295b:53
#02952:53
#03158:53
#03152:53
#03155:00630000
#0315b:00630000
#0355a:14
#03355:00130000
#03352:1313
#03452:63630000
#03455:0023002300000000
#03752:0000000000000063
#0385b:0000000000000053
#03855:13
#0365b:0000000000000053
#03652:0000000000000063
#0405b:63
#04052:63
#04455:00630000
#0445b:00000013
#04452:0000002300000000
#04855:53
#04852:0023000000000000
#0475b:13
#0325b:63
#03255:63
#03258:00530000
#03252:00530000
#0395b:00000013
#03958:13
#01455:000000000000000000000013000000000000000000000000
#01558:14
#0023b0:0013
#002380:0000000000230000
#002350:00000013
#002320:0000000000000023
#004320:0013
#004350:0000000000230000
#004380:00000013
#0043b0:0000000000000023
#005380:000000000000000000000000000000130023000000000000
#006380:000000000000000000130023000000000000000000000000
#007380:00001333
#0073b0:0000000000330033
#008380:23
#0093b0:0013
#009380:000000000000000000000000000000330023000000000000
#010380:0000001300000000
#0103b0:000000000000000000000023000000000000000000000000
#011380:0013
#0113b0:000000000000000000000000000000330023000000000000
#0123b0:13
#012380:000000330023000000000000000000000000000000000000
#012350:001300
#012320:000000000000000000330023000000000000000000000000
#013320:000000000000000000000000000000130023000000000000
#014350:000000000000000000130023000000000000000000000000
#015380:000000000000000000000013000000000000000000000000
#0153b0:000000000000000000000000000033230000000000000000
#0163b0:13
#016380:0023000000000000
#016350:000000000013000000000000000000000000000000000000
#016320:002300
#016380:0000001300000000
#0163b0:0023
#017350:0000001300000000
#017320:000000000000000000000033230000000000000000000000
#018380:0000001300000000
#0183b0:000000000000000000000033230000000000000000000000
#019350:0000000000130000
#019320:000000000000000000000000000000000023000000000000
#020350:13230000
#020320:0053000000000000
#020381:00132300
#0203b1:0000005300000000
#0223b1:13332300
#022381:0033003300000000
#024321:0000000000000013
#025351:23
#0243b0:0000000000000013
#025380:23
#0253b0:0000000000000013
#026380:23
#026320:0000000000000013
#027350:23
#027380:000000000013000023000000000000000000000000000000
#028320:130033000033000033000033000000000000000000000000
#028350:0023
#0283b1:130033000033000033000033000000000000000000000000
#028381:0023
#0293b1:13
#029381:0023
#029320:13
#029350:0023
#031320:1323
#031350:00330000
#031381:1323
#0313b1:00330000
#0323b1:1323
#032381:00330000
#032350:1323
#032320:00330000
#034320:13332300
#034350:0033003300000000
#0363b0:0000000000000013
#037380:23
#036321:0000000000000013
#037351:23
#037321:0000000000000013
#038351:23
#0383b1:0000000000000013
#039381:23
#039351:000000000013000023000000000000000000000000000000
#0403b1:130033000033000033000033000000000000000000000000
#040381:0023
#040320:130033000033000033000033000000000000000000000000
#040350:0023
#042380:00132300
#0423b0:0000005300000000
#044350:00132300
#044320:0000005300000000
#046380:13230000
#0463b0:0033000000000000
#048350:13230000
#048320:0033000000000000
#049320:16
#049340:00000022
