This file was generated by Ched 2.7.0.0.
#TITLE ""
#ARTIST ""
#DESIGNER ""
#DIFFICULTY 0
#PLAYLEVEL
#SONGID ""
#WAVE ""
#WAVEOFFSET 0
#JACKET ""
#REQUEST "ticks_per_beat 480"
#00002: 4
#BPM01: 93
#00008: 01
#TIL00: ""
#HISPEED 00
#MEASUREHS 00
#00116:13000000000000000000000013130000
#00112:00001300000013000000130000000013
#00117:00130013130000000000130000000013
#0011b:1313000013001300
#00118:00000000001300130000000000000000
#0041b:000000130000000000000000130000000000000000000000130000000000000000001300000000000000130000000000
#00412:130000130000000000000000130000000013000000130000
#00415:00000000000000000000000013000013
#00418:00000000000000000000000013000013
#00416:13
#00417:00130000
#00419:000000000000002300000000
#00414:000000000000002300000000
#00516:000000000013000000000000000000000000000000000000
#00512:0013000013001300
#0051b:0013001300130000
#00515:000000000000000000000016000016000016000016160013
#00510:41
#00618:000013000013000013000000000000000000130000000026
#00615:000000130000000000130016000000130000000026000000
#0061b:2300230000130013
#00612:230000000000230000000000130000000026000000000000
#00715:000000000000130000000016000000000000000000000000
#00718:000000000013000000000000000000000000000000000000
#00712:0013001313000000
#0071b:000000130000000013000000000000000000000000000000
#00716:14
#0081b:001300001300000000000000
#00816:0014141414242424
#00812:000000000013000000000013000000000000000000140000
#0081a:000000000014
#00912:140000140000000000001200
#00916:000000000014000014000014000000001400000000000000
#00913:0000001300000000
#0091a:0000141312000000
#0091c:000000000000000000000000000000000000000000000012
#00917:000000000000000000000000000012120000000000000000
#00914:0000000012000015
#01014:0015000000000000
#0101c:000000000012000000000000000000000000000000000000
#01017:150000000000150012120000000000000000000000000000
#01016:000000000000000000001400000024180000000000180024
#01012:000012000000000000000000000000000024180000000000
#0101a:000000000024
#01116:140000000014000014000014140000000000000000000000
#01112:1413001300140000
#0111b:0013130013000000
#01114:000000000000000000000000000000000000000000000000000000140000000014000000000000000000000000000000
#01218:000000000000000000000013000000000000000000000000
#01215:000000000000000000000000000000000032000000000000130000000000000000000000000000000000000000000000
#01212:000000000000000000000000000000000013000000000000
#01216:000000000000000012000000000014000000140000140000
#0121b:000000000000000000000000000000000032000000000000000000001300000000000000000000001300130000000000
#01217:00000000000000000000000000000013
#0121c:001200
#01512:000000130000130000000000130000000000000000130013
#0151b:0013001300131300
#01516:000000000014000014000000000000000000000000000000
#01515:000000000000000000000016000016000000130000000000
#01517:000000000000000000000000000000000000000013130000
#0171a:14
#01712:000000000016000000000000000000160000000000150000
#01716:000000141400141400000000
#01718:000000000000000000160016000000000000000000000000
#01717:000000000000000000000000000000000000150000000015
#01719:000000000000000000000000000000000015000000000000
#01714:000000000015
#00212:00130000130000000000000000001300
#0021b:1313000000130000
#00218:0000000013131300
#00215:0000000013000013
#00217:13
#00216:00130000
#01819:1500000000000025
#01814:000000000000000000000000000000000000250000000025
#01817:000000000025
#01816:000000242400242400000000
#01812:000000000000000000260026000000000025000000000000
#01818:000000000026000000000000000000260000000000000000
#01916:000000140000140013000000130000140014000014140014
#01914:000000000000000000000013000000000000000000000000
#01912:250000130000000000000000000000000013000000000000
#01918:0000001300000000
#0191b:00130000
#0201b:1313001300000000
#02017:00130013000000000000000000000000
#02012:1313131300002500
#02016:00000000001300130000000000000000
#02015:0026
#02014:0000000000280000
#02019:00000025
#02812:000000000000000000000000000000000000000000000017000000000017000000000000000000000000000000000000000000000000000000000000000000000000000000000000000000000000000000000000140000000000000000000000
#02816:00000012
#02814:230000000000000000002300001300000000000000000000230000000000000000000000000000000000000000000000
#02817:000000000000000000000000000017000000000000000000000000000000000000000017000000000017000000000000000000000000000000000000000000000000000000000000000000000000000000000000000000000000000000000000
#02819:000000002300000000000000000000002300001300000000000000000000000000000000000000000000000000000000
#0281a:0000000000240024
#02818:00000022
#02912:00130000001300000000000014000000
#0291a:23000014
#02915:1300000000130000
#02918:0000000000130000
#02914:0013131300000000
#02916:00000013000000130000000000000000
#02917:00130000001300000000000000000000
#02919:0013131300000000
#0291b:00000013000000130000000000000000
#0291f:11
#03012:23000023000023000000000013000000
#0301b:00130000001300000000130000001300
#03015:00001300001300000013000000000000
#03013:0013
#03017:00000013000000130000130000001300
#03016:00000013
#03018:13
#03019:0013131300000000
#03116:130000000000000000130000000000000000000000001400000000000000140000000000000000000000000000000000
#03114:00001214
#03118:00000014
#0311a:0012
#03117:0013000000000000
#03112:13
#03216:000000140000000000000000140000000000000000140000000000140000000000140000000014000000000014000000
#0321b:000000000000000000230000000000130000000000000000000000000000130000000000130000001300000000000000
#03212:230000130000000000230000130000000000000000130013
#0421b:00130000130000130000130000001300
#04212:23001323001323001300130000001300
#04218:13000013
#04216:00000000000013000013000000000000
#04215:00000013
#04217:00000013000000000000000000000000
#04515:0000000026161616
#04512:2414000000130000
#0451b:13000013001300001300000013000000
#04516:00000013001300000000000000000000
#04517:00130000130000000000000000000000
#04916:00140000000000000000000000000000000000000000000000000000000000000000000000000000000000000000000000000000000000000000000000000000
#04617:00130000130000130000130000001300
#04612:23000013000013000000130000001300
#04614:00000000000000000013000000000000
#04619:00000000000000000000000000130000
#04616:00001300001300002300000013000000
#0461b:13000013000013000000000023000000
#01416:000000000000000000000000000000000014000000240014
#01412:23230014
#0141a:00000014
#01418:000000130000000000130000000013000000000000000000
#01415:000013000013000013000016000000130000000000000000
#0141b:23231300
#02717:000000000000130000000000000000000000001300000000000000000000000000130000000000000000000000000000
#02712:000000000000130000001300000000000000000000000000000000000000000000130000000000000000000000000000
#0271a:14
#02716:000000000000000000000000001300000000000000000000130000000000130000000000000000000000000000000000
#0271b:000000000000000013000000130000130000000000000000
#02710:41
#04018:0000000000001216
#04017:000000000000000000000000000000000000000000000017000000000017000000000000000000000000000000000000000000000000000000000000000000000000000000000000000000000000000000000000000000000000000000000000
#04019:230000000000000000002300001300000000000000000000230000000000000000000000000000000000000000000000
#04012:000000000000000000000000000017000000000000000000000000000000000000000017000000000017000000000000000000000000000000000000240000000000000000000000000000000000000000000000260000000000000000000000
#04014:000000002300000000000000000000002300001300000000000000000000000000000000000000000000000000000000
#04016:00000022
#03916:000000000000130000000000000000000000001300000000000000000000000000130000000000000000000000000000
#0391b:000000000000130000001300000000000000000000000000000000000000000000130000000000000000000000000000
#03917:240000000000000000000000001300000000000000000000130000000000130000000000230000000000000000000000
#03912:000000000000000013000000130000130000230000000000
#04116:24000000001300001300000000000000
#04112:1300001300001300
#04117:0000130000150000
#04115:00000015
#04114:0000000000130000
#04113:0000000000000015
#0411b:00001313000000000000000000000000
#04110:41
#0441a:00000014
#04416:0000000000001300000000000000000000000000000000000014000014001400
#04412:00130000130000130000130000140000
#0441b:23001323001323001300130000000000
#04417:00000000000013000013000000000000
#04415:13
#0481b:23000013000013000000130000001300
#04815:00000000000000000000001300130013
#04818:0000000000130013
#04812:13000013000013000000000013000000
#04819:00000000000000000013000000000000
#04816:00130000130000130000000000000000
#04817:00001300001300002300000023000000
#01312:1313001300130000
#01317:000000000013000000000000000000000000000000000000
#0131b:0013000013001300
#01315:000000000000000000000016000016000016000016160000
#01318:000000000000000000000000000000000000000000000013
#01310:41
#0341b:0000131300130013
#03415:0000000000000015
#03412:1313000013001800
#03417:00001300001300000000001300000000
#03416:00130000000013000013000000000000
#03410:41
#0351b:130000000000000012000000000000000000000000130000
#0351c:000000000012000000000000000000000000000000000000
#03518:000000000013000000000000000000000000000000000000
#03516:000000000000000013000000000000000000000000000013
#03514:000000000000000000000013000000000000000000000000
#0351a:000000000000000000000012000000000000000000000000
#03517:1300000000221200
#03512:00002222
#03812:000000000014000000000000000013000000130000140000
#03815:240000000000140014000000000000160016000000000000
#0381b:00001313
#03818:000000000000000000000000000000000000000000000000000000000000000000000000140000000000000014000000000000000000000000000000000000000000000000000000000000000000000000000000000000330000000000000000
#03816:0000000000000013
#03819:00000000000000000000000000000033
#03617:000000000000000013000000000000220000120000000000
#03616:1313000000000022
#0361b:0013000000000000
#03612:000000000000000000001200000000000000000000000000000000000000000000000000000000000000000000120000
#03615:000000000013000000000000000000000000000000000000
#03613:001200
#03619:000000000000000000000013000000000000000000000000
#03614:000000000000000000000012000000000000000000000000
#0361c:00000000000000002200000022000012
#03618:0000000000000022
#04317:00000000001300001300000000000000
#0431b:1300001300001300
#04314:0000000000150000
#04316:24130015
#04319:0000000000130000
#04318:0000000000000015
#04312:00001313000000000000000000000000
#03714:00000000000000000000000000000000000000000000000000000000000000000000000024000000000000002400000000000000001a000000000000000000000000000000000000000000000000000000000000000000000000330000000000
#03713:000000000000000000000000001200000000000000000000
#0371a:000000000024000000000000000000000000000000140000
#03717:000000000000240024000000000000000000000000130000
#03715:000000000000000000000000000000000000000000000000000000000000000000000000000000000000000000000000000000000000000000000000260000000000000026000000000000000000000000000000000000330000000000000000
#0371b:00000023
#03712:00002123
#03718:0023
#02212:0000131300130013
#02216:00001300001300000000001318001500
#0221b:1313000013000000
#02217:00130000000013000013000000000000
#02312:130000000012000000000000000000000000000000130000
#02317:000000000013000000000000000000220000120000000013
#02314:001200
#02318:001300
#02319:000000000000000000000013000000000000000000000000
#02316:130000000000000000000012000000000000000000000000
#0231c:00002222
#0261a:000000000014000000000000000000000000000000000000
#02617:000000141400000000000000
#02612:1400000013001313
#02614:000000000000000000000000000000000000140000001400000000000000000000000000000000000000000000330000
#02615:000000000000000000000000000000160016000000140000
#0261b:000000000000001300130000
#02613:0000000000000000000000000000000000000000000000000000000000330000
#02412:00001300000000002200000022000012
#0241c:000000000000000000001200000000000000000000000000000000000000000000000000000000000000000000120000
#02416:000000000013000000000000000000000000000000220000
#0241a:001200
#02415:001300
#02414:000000000000000000000013000000000000000000000000
#02418:000000000000000000000012000000000000000000220000
#02417:1313000000221200
#0251b:000000000000000000000000001200000000230000130000
#02517:0000000000000014
#02512:00000000000000000000000000000000000000002400000000000000000000000000000000000000000000000000000000000000001a000000000000000000000000000000000000230000000000000000000000000000000000000000000000
#02515:000000000000240024000000230000260026000000000000
#02518:000000000000000000000000000000000000240000002400000000000000000000000000000000000000000000330000
#0251d:0021
#02519:0000000000000000000000000000000000000000000000000000000000330000
#04715:0000000026161616
#0471b:0000000000130000
#04712:13000013001300001300000013000000
#0471a:2414000000000000
#04717:00000013001300000000000000000000
#04716:00130000130000000000000000000000
#0211b:0013000000001300
#02117:0000001300130013
#02116:13000000001300000013001300130000
#02112:00130000130000001300130013001300
#02119:25
#02110:41
#0031b:00001300000013000000130000000013
#00316:00130013130000000000130000000013
#00312:1313000013001300
#00317:00000000000000000000000013130000
#00315:00000000001300130000000000000000
#03312:2513000000001300
#03316:0000001300130013
#03317:13000000001300000013001300130000
#0331b:00130000130000001300130013001300
#0331f:21
#01616:230000000000000000000000000023000000000023230000
#01617:000000000000000000000000000000000023000000000000
#0161a:000000000000000000000000000024000000000000240000
#01612:000000000023000000250000000000000024000000000000
#01618:000000000022000000000000000000000000000000000000
#0161c:22
#0161b:0000002300000000
#0015b:6353000000000000
#00157:00230023630000000000000000000000
#00152:0000002300000000
#00156:13
#00655:000000000000000000000016000000000000000000000000
#00952:14
#00957:000000000000000000000000000000220012000000000000
#00956:000054
#0175a:14
#01057:000000000000000000520012000000000000000000000000
#01056:000000000024000000000000
#01156:000000000000000000000000240000000014000000000000
#01152:1400003300240000
#01154:000000000000000000000000000000000000000000000000000000540000000054000000000000000000000000000000
#0115b:00434300
#01256:000000000000000022000000000034000000440000340000
#01257:00000000000000000000000000000023
#0125b:0000000000000063
#01258:0000003200000000
#0125c:002200
#01252:0000003200000000
#01859:15
#02057:00230023000000000000000000000000
#0205b:6363000000000000
#02052:0000535300000000
#02056:00000000002300230000000000000000
#02955:63
#0295a:63000014
#02952:00230000002300000000000014000000
#02954:0053635300000000
#02956:00000023000000230000000000000000
#02957:00230000002300000000000000000000
#02959:0053635300000000
#0295b:00000023000000230000000000000000
#04956:00640000000000000000000000000000000000000000000000000000000000000000000000000000000000000000000000000000000000000000000000000000
#04258:53000013
#04255:00000013
#0425b:00230000230000230000000000000000
#04256:0000005300000000
#04257:00000053000000000000000000000000
#00756:14000043
#0075b:0000000000430043
#00752:0043
#01956:000000000000000000000000530000340044000000000000
#01952:150000000000000000000000000000000043000000000000
#0195b:0000000000330000
#00258:0000000000632300
#00255:0000000023000053
#0025b:0063000000130000
#00257:63
#00252:00230000530000000000000000001300
#00256:00530000
#00552:33
#0055b:43
#0135b:43
#01352:33
#0155b:0000000000430000
#01556:14
#01552:0033
#01456:000000000000000000000000000000000000000000000024
#01455:000000000000000000000016000000000000000000000000
#0285a:0000000000440044
#02852:000000000000000000000000000000000000000000000027000000000027000000000000000000000000000000000000000000000000000000000000000000000000000000000000000000000000000000000000340000000000000000000000
#02854:000000000000000000006300005300000000000000000000000000000000000000000000000000000000000000000000
#02857:000000000000000000000000000027000000000000000000000000000000000000000027000000000027000000000000000000000000000000000000000000000000000000000000000000000000000000000000000000000000000000000000
#02859:000000006300000000000000000000006300006300000000000000000000000000000000000000000000000000000000
#03157:0063000000000000
#03156:53000053000000000000000000000000
#03154:00000034
#03158:00000044
#03152:131300
#0315b:001300
#04058:0000000000000046
#04057:000000000000000000000000000000000000000000000027000000000027000000000000000000000000000000000000000000000000000000000000000000000000000000000000000000000000000000000000000000000000000000000000
#04059:000000000000000000005300006300000000000000000000000000000000000000000000000000000000000000000000
#04052:000000000000000000000000000027000000000000000000000000000000000000000027000000000027000000000000000000000000000000000000340000000000000000000000000000000000000000000000360000000000000000000000
#04054:000000005300000000000000000000005300005300000000000000000000000000000000000000000000000000000000
#00458:00000000000000000000000023000023
#00455:00000000000000000000000023000023
#00452:0053000000000053
#0045b:00230000630000000000000000006300
#00456:53
#00457:00630000
#03956:000000000000000000000000000000000000002300000000000000000000000000230000000000000000000000000000
#0395b:000000000000000000006300000000000000000000000000000000000000000000230000000000000000000000000000
#03957:340000000000000000000000002300000000000000000000630000000000630000000000330000000000000000000000
#03952:000000000000000053000000530000530000330000000000
#04156:14000000006300003300000000000000
#04152:6300002300003300
#0415b:00000063000000000000000000000000
#04157:00230000
#04154:0000000000330000
#0455b:23000023005300004300000043000000
#04552:3400000000330000
#04556:00000033005300000000000000000000
#04557:00530000530000000000000000000000
#04858:0000000000230023
#04852:63000063000063000000000023000000
#04855:00000000000000000000006300630063
#0485b:00000043000043000000000000000000
#04856:00230000230000230000000000000000
#03256:00240000240000240000002400000000
#03557:33
#03455:0000000000000035
#03452:6353000053333800
#03457:00004300002300000000002300000000
#03456:00230000000033000023000000000000
#0345b:0000536300630000
#04357:00000000005300004300000000000000
#0435b:5300002300004300
#04359:0000000000430000
#04352:00000053000000000000000000000000
#04356:14230000
#04657:00230000230000230000430000000000
#04656:00000033
#04652:00000033000033000000000000000000
#0465b:53000053000053000000000000000000
#03754:00000000000000000000000000000000000000000000000000000000000000000000000000000000000000000000000000000000002a000000000000000000000000000000000000000000000000000000000000000000000000000000000000
#03753:000000000000000000000000002200000000000000000000
#03758:0063
#03752:0061
#03757:0000000000000023
#02356:43
#02256:00003300002300000000002348004500
#0225b:5363000063430000
#02257:00230000000043000023000000000000
#02252:0000635300530000
#02452:00000000000000000000000000000022
#0245c:00000000000000000000000000000022
#02456:0000000000000062
#02458:0000000000000052
#02652:3400000000000023
#0255b:000000000000000000000000002200000000000000230000
#02552:00000000000000000000000000000000000000000000000000000000000000000000000000000000000000000000000000000000002a000000000000000000000000000000000000000000000000000000000000000000000000000000000000
#02555:0053
#0255d:0051
#0275a:44
#02757:000000000000000000000000000000000000002300000000000000000000000000230000000000000000000000000000
#02752:000000000000000000005300000000000000000000000000000000000000000000230000000000000000000000000000
#02756:000000000000000000000000002300000000000000000000530000000000530000000000430000000000000000000000
#0275b:000000000000000063000000630000630000430000000000
#04455:63
#04452:00230000230000230000000000000000
#04456:00000063000000000000000000000000
#04457:0000006300000000
#0475b:0000000000430000
#04752:23000023006300003300000033000000
#04757:00000043006300000000000000000000
#04756:00630000630000000000000000000000
#0475a:44
#03058:53
#0305b:00230000002300000000000000000000
#03059:0063536300000000
#03057:00000023000000230000000000000000
#0215b:0063000013001300
#02157:0000135300130013
#02156:63000000002300000023002300230000
#02152:00230000530000006300630063006300
#02159:45
#00352:5363000000000000
#00356:00230023530000000000000000000000
#0035b:0000002300000000
#03352:3553000013001300
#03356:0000136300130013
#03357:53000000002300000023002300230000
#0335b:00230000630000005300530053005300
#03856:0000000000000023
#03855:44
#0365c:00000000000000000000000000000022
#03652:00000000000000000000000000000022
#03658:0000000000000052
#03656:0000000000000062
#00856:43
#0013b0:1333230000000000
#001370:00530053000000000000000000000000
#001371:00132300
#001321:0000005300000000
#002371:1323000000000000
#002321:00530000000000000000000000000000
#0023b0:0013002300000000
#002360:00330000
#002321:00130000
#002371:0000002300000000
#002351:00001323
#002381:0000000000330000
#002380:00000013
#002350:0000000000000033
#003380:23
#003321:1333230000000000
#003361:00530053000000000000000000000000
#003360:00132300
#0033b0:0000005300000000
#004360:1323000000000000
#0043b0:00530000000000000000000000000000
#004321:0013002300000000
#004371:00330000
#0043b0:00130000
#004360:0000002300000000
#004350:00000013
#004320:000000000023
#004381:00000013
#0043b1:000000000023
#004321:0000000000000013
#004381:00000000000000000000000000000053
#005321:23
#0043b0:0000000000000013
#004350:00000000000000000000000000000053
#0053b0:23
#0053b0:000000132300000000000000
#005361:00130000
#005321:002300
#0073b1:0000000013230000
#007371:0000000000000000000000000000000000330053000000000000000000000000
#007360:0000000000132300
#007320:0000000000000000000000000000000000000000003300530000000000000000
#0073b1:0000000000001323
#007371:0000000000000000000000000000000000000000000000000033005300000000
#007360:0000000000000013
#007320:0000000000000000000000000000000000000000000000000000000000330053
#008360:23
#0083a0:000000000000000000000000000014240000000000000000
#008320:000000000000000000000000000000000014240000000000
#008360:0000000000000014
#009360:24
#009370:000000000000000000000000000000120022000000000000
#009360:000054
#010370:000000000000000000120022000000000000000000000000
#010360:000000000054000000000000
#011360:000000000000000000000000140000000024000000000000
#011340:000000000000000000000000000000000000000000000000000000540000000054000000000000000000000000000000
#011320:0000000000340000
#011320:000000000013
#011370:0000000000000023
#011371:000000000013
#011321:0000000000000023
#011361:000000000000000000000000000000000000000000000013
#0123b1:23
#0113b0:000000000000000000000000000000000000000000000013
#012360:23
#012320:001300000000000000000000
#012370:0023000000000000
#012371:001300000000000000000000
#012321:0023000000000000
#0123c1:000000000012000032000000000000000000000000000000
#0123b1:000000000000000000000000000000000032000000000000000000000000000000000000000000000000000000000000
#012381:0000002200000000
#012360:000000000012000032000000000000000000000000000000
#012350:000000000000000000000000000000000032000000000000000000000000000000000000000000000000000000000000
#012320:0000002200000000
#0123b0:0000000000000013
#012370:00000000000000000000000000000053
#0133b0:23
#013320:000000132300000000000000
#013371:00130000
#0133b1:002300
#014361:000000000000000000000000000000000000000000000000000000000000000000000000000000000000000000000000000000000000000000000000000000000000000000000000000000000000000000000000140000000000000054000054
#014371:00000000000000000000000000000000000000000000000000000000000000000000000000000000000000000000000000000000000000000000000000000000000000000000000000000000000000000000000000000000000000000000000000000000000000000000000000000000000000000000000000000000000000000000000000000000000000000000000000000000000000000000000000000000000000000000000000000000000000000000000000000000000000000000000000000000000000000000000000000000000000000000000000000000000000000000000000000000000000000000000000000000000000000000000000000000000000000000000000000000000000000000000000000000000000000000000000000000000000000000000000000000000000000000000000000000000000000000000000000000000000000000000000000000000000000000000000000000000000000000000000000000000000000000000000000000000000000000000000000000000000000000000000000000000000000000000000000000000000000000000000000000000000000000000000000000000000000000000000000000000000000000000000000000000000000000000000000000000000000000000000000000000000000000000000000000000000000000000000000000000000000000000000000000000000000000000000000000000000000000000000000000000000000000000000000000000000000000000000000000000000000000000000000000000000000000000000000000000000000000000000000000000000000000000000000000000000005200000000000000000000000052000000000000
#015361:24
#016361:130000000000000000000000000000000000000000000000000000000000000000000000000000000000000000000000000000000000000000000000000000000000000000000000000000000000000000000000000000000000000000000000000000000000000000000000000000000000000000000053560000000000000000000000000000000000000000000000000000000000000000000000000000000000000000000000000000000000000000000000000000000000000000000000000000000000000000000000000000000000000000000000000000000000000000000000000000000000000000000000230000000000000000000000000000000000000000000000000000000000000000000000000000000000000000000000000000000000000000000000000000000000000000000000000000000000000000000000000000000000000000000000000000000000000000000000000000000000000000000000000000000000000000000000000000000000000000000000000000000000000000000000000000000000000000000000000000000000000000000000000000000000000000000000000000000000000000000000000000000000000000000000000000000000000000000000000000000000000000000000000000000000000000000000000000000000000000000000000000000000000000000000000000000000000000000000000000000000000000000000000000000000000000000000000000000000000000000000000000000000000000000000000000000000000000000000000000000000000000000000000000000000000000000000000000000000000000000000000000000000000000000000000000000000000000000000000000000000000000000000000000000000000000000000000000000000000000000000000000000000000000000000000000000000000000000000000000000000000000000000000000000000000000000000000000000000000000000000000000000000000000000000000000000000000000000000000000000000000000000000000000000000000000000000000000000000000000000000000000000000000000000000000000000000000000000000000000000000000000000000000000000000000000000000000000000000000000000000000000000000000000000000000000000000000000000000000000000000000000000000000000000000000000000000000000000000000000000000000000000000000000000000000000000000000000000000000000000000000000000000000000000000000000000000000000000000000000000000000000000000000000000000000000000000000000000000000000000000000000000000000000000000000000000000000000000000000000000000000000000000000000000000000000000000000000000000000000000000000000000000000000000000000000000000000000000000000000000000000000000000000000000000000000000000000000000000000000000000000000000000000000000000000000000000000000000000000000000000000000000000000000000000000000000000000000000000000000000000000000000000000000000000000000000000000000000000000000000000000000000000000000000000000000000000000000000000000000000000000000000000000000000000000000000000000000000000000000000000000000000000000000000000000000000000000000000000000000000000000000000000000000000000000000000000000000000000000000000000000000000000000000000000000000000000000000000000000000000000000000000000000000000000000000000000000000000000000000000000000000000000000000000000000000000000000000000000000000000000000000000000000000000000000000000000000000000000000000000000000000000000000000000000000000000000000000000000000000000000000000000000000000000000000000000000000000000000000000000000000000000000000000000000000000000000000000000000000000000000000000000000000000000000000000000000000000000000000000000000000000000000000000000000000000000000000000000000000000000000000000000000000000000000000000000000000000000000000000000000000000000000000000000000000000000000000000000000000000000000000000000000000000000000000000000000000000000000000000000000000000000000000000000000000000000000000000000000000000000000000000000000000000000000000000000000000000000000000000000000000000000000000000000000000000000000000000000000000000000000000000000000000000000000000000000000000000000000000000000000000000000000000000000000000000000000000000000000000000000000000000000000000000000000000000000000000000000000000000000000000000000000000000000000000000000000000000000000000000000000000000000000
#0163c0:120000000000000000000000000000000000000000000000000000000000000000000000000000000000000000000000000000000000000000000000005200000000000000000000000000000000000000000000000000000000000000000000000000000000000000000000000000000000000000000000220000000000000000000000000000000000000000000000000000000000000000000000000000000000000000000000000000000000000000000000000000000000000000000000000000000000000000000000000000000000000000000000000000000000000000000000000000000000000000000000000000000000000000000000000000000000000000000000000000000000000000000000000000000000000000000000000000000000000000000000000000000000000000000000000000000000000000000000000000000000000000000000000000000000000000000000000000000000000000000000000000000000000000000000000000000000000000000000000000000000000000000000000000000000000000000000000000000000000000000000000000000000000000000000000000000000000000000000000000000000000000000000000000000000000000000000000000000000000000000000000000000000000000000000000000000000000000000000000000000000000000000000000000000000000000000000000000000000000000000000000000000000000000000000000000000000000000000000000000000000000000000000000000000000000000000000000000000000000000000000000000000000000000000000000000000000000000000000000000000000000000000000000000000000000000000000000000000000000000000000000000000000000000000000000000000000000000000000000000000000000000000000000000000000000000000000000000000000000000000000000000000000000000000000000000000000000000000000000000000000000000000000000000000000000000000000000000000000000000000000000000000000000000000000000000000000000000000000000000000000000000000000000000000000000000000000000000000000000000000000000000000000000000000000000000000000000000000000000000000000000000000000000000000000000000000000000000000000000000000000000000000000000000000000000000000000000000000000000000000000000000000000000000000000000000000000000000000000000000000000
#016390:000000000000000000000000000000000000000000000000000000000000000000000000000000000000000000000000000000000000000000000000000000000000000000000000000000000000000000000000000000000000000000000000000000000000000000000000000000000000000000000000005500000000000000000000000000000000000000000000000000000000000000000000000000000000000000000000000000000000000000000000000000000000000000000000000000000000000000000000000000000000000000000000000000000000000000000000000000000000000000000000000000000000000000000000000000000000000000000000000000000000000000000000000000000000000000000000000000000000000000000000000000000000000000000000000000000000000000000000000000000000000000000000000000000000000000000000000000000000000000000000000000000000000000000000000000000000000000000000000000000000000000000000000000000000000000000000000000000000000000000000000000000000000000000000000000000000000000000000000000000000000000000000000000000000000000000000000000000000000000000000000000000000000000000000000000000000000000000000000000000000000000000000000000000000000000000000000000000000000000000000000000000000000000000000000000000000000000000000000000000000000000000000000000000000000000000000000000000000000000000000000000000000000000000000000000000000000000000000000000000000000000000000000000000000000000000000000000000000000000000000000000000000000000000000000000000000000000000000000000000000000000000000000000000000000000000000000000000000000000000000000000000000000000000000000000000000000000000000000000000000000000000000000000000000000000000000000000000000000000000000000000000000000000000000000000000000000000000000000000000000000000000000000000000000000000000000000000000000000000000000000000000000000000000000000000000000000000000000000000000000000000000000000000000000000000000000000000000000000000000000000000000000000000000000000000000000000000000000000000000000000000000000000000000000000000000000000000000000000000000000000000000000000000000000000000000000000000000000000000000000000000000000000000000000000000000000000000000000000000000000000000000000000000000000000000000000000000000000000000000000000000000000000000000000000000000000000000000000000000000000000000000000000000000000000000000000000000000000000000000000000000000000000000000000000000000000000000000000000000000000000000000000000000000000000000000000000000000000000000000000000000000000000000000000000000000000000000000000000000000000000000000000000000000000000000000000000000000000000000000000000000000000000000000000000000000000000000000000000000000000000000000000000000000000000000000000000000000000000000000000000000000000000000000000000000000000000000000000000000000000000000000000000000000000000000000000000000000000000000000000000000000000000000000000000000000000000000000000000000000000000000000000000000000000000000000000000000000000000000000000000000000000000000000000000000000000000000000000000000000000000000000000000000000000000000000000000000000000000000000000000000000000000000000000000000000000000000000000000000000000000000000000000000000000000000000000000000000000000000000000000000000000000000000000000000000000000000000000000000000000000000000000000000000000000000000000000000000000000000000000000000000000000000000000000000000000000000000000000000000000000000000000000000000000000000000000000000000000000000000000000000000000000000000000000000000000000000000000000000000000000000000000000000000000000000000000000000000000000000000000000000000000000000000000000000000000000000000000000000000000000000000000000000000000000000000000000000000000000000000000000000000000000000000000000000000000000000000000000000000000000000000000000000000000000000000000000000000000000000000000000000000000000000000000000000000000000000000000000000000000000000000000000000000000000000000000000000000000000000000000000000000000000000000000000000000000000000000000000000000000
#016320:000000000000000000000000000000000000000000000000000000000000000000000000000000000000000000000000000000000000000000000000000000000000000000000000000000000000000000000000000000000000000000000000000000000000000000000000000000000000000000000000000000000000000000000000000000000000000000000000000000000000000000000000000000000000000000000000000000000000000000000000000000000000000000000000000000000000000000000000000000000000000000000000000000000000000000000000000000000000000000000000000000000000000000000000000000000000000000000000000000000000000000000000000000000000000000000000000000000000000000000000000000000000000000000000000000000000000000000000000000000000000000000000000000000000000000000000000000000000000000000000000000000000000000000000000000000000000000000000000000000000000000000000000000001300000000000000000000000000000000000000000000000000000000000000000000000000000000000000000000000000000000000000000000000000000000000000000000000000000000000000000000000000000000000000000000000000000000000000000000000000000000000000000000535600000000000000000000000000000000000000000000000000000000000000000000000000000000000000000000000000000000000000000000000000000000000000000000000000000000000000000000000000000000000000000000000000000000000000000000000000000000000000000000002300000000000000000000000000000000000000000000000000000000000000000000000000000000000000000000000000000000000000000000000000000000000000000000000000000000000000000000000000000000000000000000000000000000000000000000000000000000000000000000000000000000000000000000000000000000000000000000000000000000000000000000000000000000000000000000000000000000000000000000000000000000000000000000000000000000000000000000000000000000000000000000000000000000000000000000000000000000000000000000000000000000000000000000000000000000000000000000000000000000000000000000000000000000000000000000000000000000000000000000000000000000000000000000000000000000000000000000000000000000000000000000000000000000000000000000000000000000000000000000000000000000000000000000000000000000000000000000000000000000000000000000000000000000000000000000000000000000000000000000000000000000000000000000000000000000000000000000000000000000000000000000000000000000000000000000000000000000000000000000000000000000000000000000000000000000000000000000000000000000000000000000000000000000000000000000000000000000000000000000000000000000000000000000000000000000000000000000000000000000000000000000000000000000000000000000000000000000000000000000000000000000000000000000000000000000000000000000000000000000000000000000000000000000000000000000000000000000000000000000000000000000000000000000000000000000000000000000000000000000000000000000000000000000000000000000000000000000000000000000000000000000000000000000000000000000000000000000000000000000000000000000000000000000000000000000000000000000000000000000000000000000000000000000000000000000000000000000000000000000000000000000000000000000000000000000000000000000000000000000000000000000000000000000000000000000000000000000000000000000000000000000000000000000000000000000000000000000000000000000000000000000000000000000000000000000000000000000000000000000000000000000000000000000000000000000000000000000000000000000000000000000000000000000000000000000000000000000000000000000000000000000000000000000000000000000000000000000000000000000000000000000000000000000000000000000000000000000000000000000000000000000000000000000000000000000000000000000000000000000000000000000000000000000000000000000000000000000000000000000000000000000000000000000000000000000000000000000000000000000000000000000000000000000000000000000000000000000000000000000000000000000000000000000000000000000000000000000000000000000000000000000000000000000000000000000000000000000000000000000000000000000000000000000000000000000000000000000000000000000000000000000000000000000000000000000000000
#016381:000000000000000000000000000000000000000000000000000000000000000000000000000000000000000000000000000000000000000000000000000000000000000000000000000000000000000000000000000000000000000000000000000000000000000000000000000000000000000000000000000000000000000000000000000000000000000000000000000000000000000000000000000000000000000000000000000000000000000000000000000000000000000000000000000000000000000012000000000000000000000000000000000000000000000000000000000000000000000000000000000000000000000000000000000000000000000000520000000000000000000000000000000000000000000000000000000000000000000000000000000000000000000000000000000000000000000022000000000000000000000000000000000000000000000000000000000000000000000000000000000000000000000000000000000000000000000000000000000000000000000000000000000000000000000000000000000000000000000000000000000000000000000000000000000000000000000000000000000000000000000000000000000000000000000000000000000000000000000000000000000000000000000000000000000000000000000000000000000000000000000000000000000000000000000000000000000000000000000000000000000000000000000000000000000000000000000000000000000000000000000000000000000000000000000000000000000000000000000000000000000000000000000000000000000000000000000000000000000000000000000000000000000000000000000000000000000000000000000000000000000000000000000000000000000000000000000000000000000000000000000000000000000000000000000000000000000000000000000000000000000000000000000000000000000000000000000000000000000000000000000000000000000000000000000000000000000000000000000000000000000000000000000000000000000000000000000000000000000000000000000000000000000000000000000000000000000000000000000000000000000000000000000000000000000000000000000000000000000000000000000000000000000000000000000000000000000000000000000000000000000000000000000000000000000000000000000000000000000000000000000000000000000000000000000000000000000000000000000000000000
#016351:000000000000000000000000000000000000000000000000000000000000000000000000000000000000000000000000000000000000000000000000000000000000000000000000000000000000000000000000000000000000000000000000000000000000000000000000000000000000000000000000000000000000000000000000000000000000000000000000000000000000000000000000000000000000000000000000000000000000000000000000000000000000000000000000000000000000000000000000000000000000000000000000000000000000000000000000000000000000000000000000000000000000000000000000000000000000000000000000000000000000000000000000000000000000000000000000000000000000000000000000000000000000000000000000000000000000000000000000000000000000000000000000000000000000000000000000000000000000000000000000000000000000000000000000000000000000000000000000000000000000000000000000000000000000000000000000000000000000000000000000000000000000000000000000000000000000000000000000000000000000000000000000000000000000000000000000000000000000000000000000000000000000000000000000000000000000000000000000000000000000000000000000000000000055000000000000000000000000000000000000000000000000000000000000000000000000000000000000000000000000000000000000000000000000000000000000000000000000000000000000000000000000000000000000000000000000000000000000000000000000000000000000000000000000000000000000000000000000000000000000000000000000000000000000000000000000000000000000000000000000000000000000000000000000000000000000000000000000000000000000000000000000000000000000000000000000000000000000000000000000000000000000000000000000000000000000000000000000000000000000000000000000000000000000000000000000000000000000000000000000000000000000000000000000000000000000000000000000000000000000000000000000000000000000000000000000000000000000000000000000000000000000000000000000000000000000000000000000000000000000000000000000000000000000000000000000000000000000000000000000000000000000000000000000000000000000000000000000000000000000000000000000000000000000000000000000000000000000000000000000000000000000000000000000000000000000000000000000000000000000000000000000000000000000000000000000000000000000000000000000000000000000000000000000000000000000000000000000000000000000000000000000000000000000000000000000000000000000000000000000000000000000000000000000000000000000000000000000000000000000000000000000000000000000000000000000000000000000000000000000000000000000000000000000000000000000000000000000000000000000000000000000000000000000000000000000000000000000000000000000000000000000000000000000000000000000000000000000000000000000000000000000000000000000000000000000000000000000000000000000000000000000000000000000000000000000000000000000000000000000000000000000000000000000000000000000000000000000000000000000000000000000000000000000000000000000000000000000000000000000000000000000000000000000000000000000000000000000000000000000000000000000000000000000000000000000000000000000000000000000000000000000000000000000000000000000000000000000000000000000000000000000000000000000000000000000000000000000000000000000000000000000000000000000000000000000000000000000000000000000000000000000000000000000000000000000000000000000000000000000000000000000000000000000000000000000000000000000000000000000000000000000000000000000000000000000000000000000000000000000000000000000000000000000000000000000000000000000000000000000000000000000000000000000000000000000000000000000000000000000000000000000000000000000000000000000000000000000000000000000000000000000000000000000000000000000000000000000000000000000000000000000000000000000000000000000000000000000000000000000000000000000000000000000000000000000000000000000000000000000000000000000000000000000000000000000000000000000000000000000000000000000000000000000000000000000000000000000000000000000000000000000000000000000000000000000000000000000000000000000000000000000000000000000000000000000000000000000000000000000
#016321:000000000000000000000000000000000000000000000000000000000000000000000000000000000000000000000000000000000000000000000000000000000000000000000000000000000000000000000000000000000000000000000000000000000000000000000000000000000000000000000000000000000000000000000000000000000000000000000000000000000000000000000000000000000000000000000000000000000000000000000000000000000000000000000000000000000000000000000000000000000000000000000000000000000000000000000000000000000000000000000000000000000000000000000000000000000000000000000000000000000000000000000000000000000000000000000000000000000000000000000000000000000000000000000000000000000000000000000000000000000000000000000000000000000000000000000000000000000000000000000000000000000000000000000000000000000000000000000000000000000000000000000000000000000000000000000000000000000000000000000000000000000000000000000000000000000000000000000000000000000000000000000000000000000000000000000000000000000000000000000000000000000000000000000000000000000000000000000000000000000000000000000000000000000000000000000000000000000000000000000000000000000000000000000000000000000000000000000000000000000000000000000000000000000000000000000000000000000000000000000000000000000000000000000000000000000000000000000000000000000000000000000000000000000000000000000000000000000000000000000000000000000000000000000000000000000000000000000000000000000000000000000000000000000000000000000000000000000000000000000000150000000000000000000000000000000000000000000000000000000000000000000000000000000000000000000000000000000000000000000000000000000000000000000000000000000000000000000000000000000000000000000000000000000000000000000000000000000000000000000055590000000000000000000000000000000000000000000000000000000000000000000000000000000000000000000000000000000000000000000000000000000000000000000000000000000000000000000000000000000000000000000000000000000000000000000000000000000000000000000000250000000000000000000000000000000000000000000000000000000000000000000000000000000000000000000000000000000000000000000000000000000000000000000000000000000000000000000000000000000000000000000000000000000000000000000000000000000000000000000000000000000000000000000000000000000000000000000000000000000000000000000000000000000000000000000000000000000000000000000000000000000000000000000000000000000000000000000000000000000000000000000000000000000000000000000000000000000000000000000000000000000000000000000000000000000000000000000000000000000000000000000000000000000000000000000000000000000000000000000000000000000000000000000000000000000000000000000000000000000000000000000000000000000000000000000000000000000000000000000000000000000000000000000000000000000000000000000000000000000000000000000000000000000000000000000000000000000000000000000000000000000000000000000000000000000000000000000000000000000000000000000000000000000000000000000000000000000000000000000000000000000000000000000000000000000000000000000000000000000000000000000000000000000000000000000000000000000000000000000000000000000000000000000000000000000000000000000000000000000000000000000000000000000000000000000000000000000000000000000000000000000000000000000000000000000000000000000000000000000000000000000000000000000000000000000000000000000000000000000000000000000000000000000000000000000000000000000000000000000000000000000000000000000000000000000000000000000000000000000000000000000000000000000000000000000000000000000000000000000000000000000000000000000000000000000000000000000000000000000000000000000000000000000000000000000000000000000000000000000000000000000000000000000000000000000000000000000000000000000000000000000000000000000000000000000000000000000000000000000000000000000000000000000000000000000000000000000000000000000000000000000000000000000000000000000000000000000000000000000000000000000000000000000000000000000000000000000000000000000000
#0163b0:000000000000000000000000000000000000000000000000000000000000000000000000000000000000000000000000000000000000000000000000000000000000000000000000000000000000000000000000000000000000000000000000000000000000000000000000000000000000000000000000000000000000000000000000000000000000000000000000000000000000000000000000000000000000000000000000000000000000000000000000000000000000000000000000000000000000000000000000000000000000000000000000000000000000000000000000000000000000000000000000000000000000000000000000000000000000000000000000000000000000000000000000000000000000000000000000000000000000000000000000000000000000000000000000000000000000000000000000000000000000000000000000000000000000000000000000000000000000000000000000130000000000000000000000000000000000000000000000000000000000000000000000000000000000000000000000000000000000000000000000005300000000000000000000000000000000000000000000000000000000000000000000000000000000000000000000000000000000000000000000230000000000000000000000000000000000000000000000000000000000000000000000000000000000000000000000000000000000000000000000000000000000000000000000000000000000000000000000000000000000000000000000000000000000000000000000000000000000000000000000000000000000000000000000000000000000000000000000000000000000000000000000000000000000000000000000000000000000000000000000000000000000000000000000000000000000000000000000000000000000000000000000000000000000000000000000000000000000000000000000000000000000000000000000000000000000000000000000000000000000000000000000000000000000000000000000000000000000000000000000000000000000000000000000000000000000000000000000000000000000000000000000000000000000000000000000000000000000000000000000000000000000000000000000000000000000000000000000000000000000000000000000000000000000000000000000000000000000000000000000000000000000000000000000000000000000000000000000000000000000000000000000000000000000000000000000000000000000000000000000
#016370:000000000000000000000000000000000000000000000000000000000000000000000000000000000000000000000000000000000000000000000000000000000000000000000000000000000000000000000000000000000000000000000000000000000000000000000000000000000000000000000000000000000000000000000000000000000000000000000000000000000000000000000000000000000000000000000000000000000000000000000000000000000000000000000000000000000000000000000000000000000000000000000000000000000000000000000000000000000000000000000000000000000000000000000000000000000000000000000000000000000000000000000000000000000000000000000000000000000000000000000000000000000000000000000000000000000000000000000000000000000000000000000000000000000000000000000000000000000000000000000000000000000000000000000000000000000000000000000000000000000000000000000000000000000000000000000000000000000000000000000000000000000000000000000000000000000000000000000000000000000000000000000000000000000000000000000000000000000000000000000000000000000000000000000000000000000000000000000000000000000000000000000000000000000000000000000000000000000000000000000000000000000000000000000000000000000000000000000000000000000000000000000000000000000000000000000000000000000000000000000000000000000000000000000000000000000000000000000000000000000000000000000000000000000000000000000000000000000000000000000000000000000000000000000000000000000000000000000000000000000000000000000000000000000000000000000000000000000000000000000000000000000000000000000000000000000000000000000000000000000000000000000000000000000000000000000000000000000000000000000000000000000000000000000000000000000000000000000000000000000000000000000000000000000000000000000000000000000000000000000000005700000000000000000000000000000000000000000000000000000000000000000000000000000000000000000000000000000000000000000000000000000000000000000000000000000000000000000000000000000000000000000000000000000000000000000000000000000000000000000000000000000000000000000000000000000000000000000000000000000000000000000000000000000000000000000000000000000000000000000000000000000000000000000000000000000000000000000000000000000000000000000000000000000000000000000000000000000000000000000000000000000000000000000000000000000000000000000000000000000000000000000000000000000000000000000000000000000000000000000000000000000000000000000000000000000000000000000000000000000000000000000000000000000000000000000000000000000000000000000000000000000000000000000000000000000000000000000000000000000000000000000000000000000000000000000000000000000000000000000000000000000000000000000000000000000000000000000000000000000000000000000000000000000000000000000000000000000000000000000000000000000000000000000000000000000000000000000000000000000000000000000000000000000000000000000000000000000000000000000000000000000000000000000000000000000000000000000000000000000000000000000000000000000000000000000000000000000000000000000000000000000000000000000000000000000000000000000000000000000000000000000000000000000000000000000000000000000000000000000000000000000000000000000000000000000000000000000000000000000000000000000000000000000000000000000000000000000000000000000000000000000000000000000000000000000000000000000000000000000000000000000000000000000000000000000000000000000000000000000000000000000000000000000000000000000000000000000000000000000000000000000000000000000000000000000000000000000000000000000000000000000000000000000000000000000000000000000000000000000000000000000000000000000000000000000000000000000000000000000000000000000000000000000000000000000000000000000000000000000000000000000000000000000000000000000000000000000000000000000000000000000000000000000000000000000000000000000000000000000000000000000000000000000000000000000000000000000000000000000000000000000000000000000000000000000000000000000000000000000000000000000000000000000000000000000000000000000000000000000000
#016360:000000000000000000000000000013230000000000000000
#016370:000000000000000000000000000000000013230000000000
#016360:0000000000000013
#017360:23
#019360:0013
#0193b0:0000000000230000
#0203b0:1353230000000000
#020370:00530053000000000000000000000000
#020321:0000135323000000
#020361:00000000005300530000000000000000
#021361:1323000000000000
#021321:00330000000000000000000000000000
#0213b0:0013000000000000
#021370:00000053230000000000000000000000
#021321:0000132300000000
#021361:00000000003300000000000000000000
#021370:0000001300000000
#0213b0:00000000000000532300000000000000
#021321:0000000013333333
#021361:00000000000000000033003300330053
#022361:23
#0223b0:1333000000000000
#022370:00330000000000000000000000000000
#022360:00230000
#022321:0000133300000000
#022361:00000000003300000000000000000000
#022371:0023
#0223b0:0000000013230000
#022370:00000000000000000033000000000000
#022321:0000000000132300
#022361:00000000000000000000003300000000
#023321:000000000000000000000000000012220000000000000000
#023361:0000000000000013
#0233b1:000000000000000000000000000000000000000000000033
#0243b1:23
#0243c1:000000000000000000000000000012220000000000000000
#024361:0000000000000012
#024321:00000000000000000000000000000052
#025361:22
#024380:0000000000000012
#0243c0:00000000000000000000000000000052
#025380:22
#0253d0:000000000000112100000000
#0253b0:000000000000000000000000005200000000000000000000
#025351:000000000000132300000000
#025321:0000000000000000000000000000000000000000000000000000000000000000000000000000000000000000000000000000005a005a000000000000000000000000000000000000000000000000000000000000000000000000000000000000
#025341:000000000000000000000000000000000000000000000000000000000000000000000000000000000000000000000000000000000000000000000000000000000000000000000000000000000000000000000000000000000000000000000000000000000000000000000000000000000000000000000000000000000000000000000000000000000000000000000000000000000000000000000000000000000000000000000000000000000000000000000000000000000000000000000000000000000000000000000000000000000000000000000000000000000000000000000000000000000000000000000000000000000000000000000000000000000000000000000000000000000000000000000000000000000000000000000000000000000000000000000000000000000000000000000000000000000000000000000000000000000000000000000000000000000000000000000000000000000000000000000000000000000000000000000000000000000000000000000000000000000000000000000000000000000000000000000000000000000000000000000000000000000000000000000000000000000000000000000000000000000000000000000000000000000000000000000000000000000000000000000000000000000000000000000000000000000000000000000000000000000000000000000000000000000000000000000000000000000000000000000000000000000000000000000000000000000000000000000000000000000000000000000000000000000000000000000000000000000000000000000000000000000000000000000000000000000000000000000000000000000000000000000000000000000000000000000000000000000000000000000000000000000000000000000000000000000000000000000000000000000000000000000000000000000000000000000000000000000000000000000000000000000000000000000000000000000000000000000000000000000000000000000000000000000000000000000000000000000000000000000000000000000000000000000000000000000000000000000000000000000000000000000000000000000000000000000000000000000000000000000000000000000000000000000000000000000000000000000000000000000000000000000000000000000000000000000000000000000000000000000000000000000000000000000000000000000000000000000000000000000000000000000000000000000000000000000000000000000000000000000000000000000000000000000000000000000000000000000000000000000000000000000000000000000000000000000000000000000000000000000000000000000000000000000000000000000000005800000000000000000000000000000000000000000000000000000000000000000000000000000000000000000000000000000000000000000000000000000000000000000000000000000000000000000000000000000000000000000000000000000000000000000000000000000000000000000000000000000000000000000000000000000000000000000000000000000000000000000000000000000000000000000000000000000000000000000000000000000000000000000000000000000000000000000000000000000000000000000000000000000000000000000000000000000000000000000000000000000000000000000000000000000000000000000000000000000000000000000000000000000000000000000000000000000000000000000000000000000000000000000000000000000000000000000000000000000000000000000000000000000000000000000000000000000000000000000000000000000000000000000000000000000000000000000000000000000000000000000000000000000000000000000000000000000000000000000000000000000000000000000000000000000000000000000000000000000000000000000000000000000000000000000000000000000000000000000000000000000000000000000000000000000000000000000000000000000000000000000000000000000000000000000000000000000000000000000000000000000000000000000000000000000000000000000000000000000000000000000000000000000000000000000000000000000000000000000000000000000000000000000000000000000000000000000000000000000000000000000000000000000000000000000000000000000000000000000000000000000000000000000000000000000000000000000000000000000000000000000000000000000000000000000000000000000000000000000000000000000000000000000000000000000000000000000000000000000000000000000000000000000000000000000000000000000000000000000000000000000000000000000000000000000000000000000000000000000000000000000000000000000000000000000000000000000000000000000000000000000000000000000000000000000000000000000000000000000000000000000000000000000000
#0253b1:0000000000000013
#025391:0000000000000000000000000000000000000000000000000000000000330000
#025381:00000000000000000000000000000033
#026361:23
#026321:0000000000000013
#026331:0000000000000000000000000000000000000000000000000000000000330000
#026341:00000000000000000000000000000033
#027371:23
#027321:000000000000000000001300000000003300000000003300000000003300000000530000000000000000000000000000
#027361:000000000000000000000000005300000000000000000000330000000000330000000000230000000000000000000000
#0273b0:000000000013000033000023000000000000000000000000
#027370:000000000000000000000000000000000000005300000000000000000000000000000000000000000000000000000000
#0273b0:0013
#027370:000000000000002300000000
#0273b0:0000000000132300
#027370:00000000000000000000005300000000
#028340:130000000000000000000000000000000000000000000000000000000000000000000000000000000000000000000000000000000000000000000053000000000000000000000000000000000000000023000000000000000000000000000000000000000000000000000000000000000000000000000000000000000000000000000000000000000000000000000000000000000000000000000000000000000000000000000000000000000000000000000000000000000000000000000000000000000000000000000000000000000000000000000000000000000000000000000000000000000000000000000000000000000000000000000000000000000000000000000000000000000000000000000000000000000000000000000000000000000000000000000000000000000000000000000000000000000000000000000000000000000000000000000000000000000000000000000000000000000000000000000000000000000000000000000000000000000000000000000000000000000000000000000000000000000000000000000000000000000000000000000000000000000000000000000000000000000000000000000000000000000000000000000000000000000000000000000000000000000000000000000000000000000000000000000000000000000000000000000000000000000000000000000000000000000000000000000000000000000000000000000000000000000000000000000000000000000000000000000000000000000000000000000000000000000000000000000000000000000000000000000000000000000000000000000000000000000000000000000000000000000000000000000000000000000000000000000000000000000000000000000000000000000000000000000000000000000000000000000000000000000000000000000000000000000000000000000000000000000000000000000000000000000000000000000000000000000000000000000000000000000000000000000000000000000000000000000000000000000000000000000000000000000000000000000000000000000000000000000000000000000000000000000000000000000000000000000000000000000000000000000000000000000000000000000000000000000000000000000000000000000000000000000000000000000000000000000000000000000000000000000000000000000000000000000000000000000000000000000000000000000000000000000000000000000000000000000000000000000000000000000000
#028320:00550000000000000000000000000000
#028391:000013000023000000000000000000000000000000000000
#028371:000000000000005700000000000000000000000000000000000000000000000000000000000000000000000000000000
#028340:000000000000000000001300005300002300000000000000000000000000000000000000000000000000000000000000
#028320:000000000000000000000000000000000000000000000057000000000057000000000000000000000000000000000000000000000000000000000000000000000000000000000000000000000000000000000000000000000000000000000000
#028391:000000000000000000000000000000001300005300002300000000000000000000000000000000000000000000000000
#028371:000000000000000000000000000000000000000000000000000000000000000000000057000000000057000000000000000000000000000000000000000000000000000000000000000000000000000000000000000000000000000000000000
#028341:000000000000000000000000000000000000000000000000000000000000000000000000000000000000000000000000000000000000000000000000000000000000000000000000000000000000000000000000000000000000000000000000000000000000000000000000000000000000000000000000000000000000000000000000000000000000000000000000000000000000000000000000000000000000000000000000000000000000000000000000000000000000000000000000000000000000000000000000000000000000000000000000000000000000000000000000000000000000000000000000000000000000000000000000000000000000000000000000000000000000000000000000000000000000000000000000000000000000000000000000000000000000000000000000000000000000000000000000000000000000000000000000000000000000000000000000000000000000000000000000000000000000000000000000000000000000000000000000000000000000000000000000000000000000000000000000000000000000000000000000000000000000000000000000000000000000000000000000000000000000000000000000000000000000000000000000000000000000000000000000000000000000000000000000000000000000000000000000000000000000000000000000000000000000000000000000000000000000000000000000000000000000000000000000000000000000000000000000000000000000000000000000000000000000000000000000000000000000000000000000000000000000000000000000000000000000000000000000000000000000000000000000000000000000000000000000000000000000000000000000000000000000000000000000000000000000000000000000000000000000000000000000000000000000000000000000000000000000000000000000000000000000000000000000000000000000000000000000000000000000000000000000000000000000000000000000000000000000000000000000000000000000000000000000000000000000000000000000000000000000000000000000000000000000000000000000000000000000000000000000000000000000000000000000000000000000000000000000000000000000000000000000000000000000000000000000000000000000000000000000000000000000000000000000000000000000000000000000000000000000000000000000000000000000000000000000000000000000000000000000130000000000000000000000000000000000000000000000000000000000000000000000000000000000000000000000000000000000000000000053000000000000000000000000000000000000000000000000000000000000000000000000000000000000000000000000000000000000000000000000000000000000000000000000000000000000000000000000000000000000000000000000000000000000000000000000000000000000000000000000000000000000000000000000000000000000000000000000000000000000000000000000000000000000000000000000000000000000000000000000230000000000000000000000000000000000000000000000000000000000000000000000000000000000000000000000000000000000000000000000000000000000000000000000000000000000000000000000000000000000000000000000000000000000000000000000000000000000000000000000000000000000000000000000000000000000000000000000000000000000000000000000000000000000000000000000000000000000000000000000000000000000000000000000000000000000000000000000000000000000000000000000000000000000000000000000000000000000000000000000000000000000000000000000000000000000000000000000000000000000000000000000000000000000000000000000000000000000000000000000000000000000000000000000000000000000000000000000000000000000000000000000000000000000000000000000000000000000000000000000000000000000000000000000000000000000000000000000000000000000000000000000000000000000000000000000000000000000000000000000000000000000000000000000000000000000000000000000000000000000000000000000000000000000000000000000000000000000000000000000000000000000000000000000000000000000000000000000000000000000000000000000000000000000000000000000000000000000000000000000000000000000000000000000000000000000000000000000000000000000000000000000000000000000000000000000000000000000000000000000000000000000000000000000000000000000000000000000000000000000000000000000000000000000000000000000000000000000000000000000000000000000000000000000000000000000000000000000000000000000000000000000000000000000000000000000000000000000000000000000
#028321:000000000000000000000000000000000000000000000000000000000000000000000000000000000000000000000000000000000000000000000000000000000000000000000000000000000000000000000000000000000000000000000000000000000000000000000000000000000000000000000000000000000000000000000000000000000000000000000000000000000000000000000000000000000000000000000000000000000000000000000000000000000000000000000000000000000000000000000000000000000000000000000000000000000000000000000000000000000000000000000000000000000000000000000000000000000000000000000000000000000000000000000000000000000000000000000000000000000000000000000000000000000000000000000000000000000000000000000000000000000000000000000000000000000000000000000000000000000000000000000000000000000000000000000000000000000000000000000000000000000000000000000000000000000000000000000000000000000000000000000000000000000000000000000000000000000000000000000000000000000000000000000000000000000000000000000000000000000000000000000000000000000000000000000000000000000000000000000000000000000000000000000000000000000000000000000000000000000000000000000000000000000000000000000000000000000000000000000000000000000000000000000000000000000000000000000000000000000000000000000000000000000000000000000000000000000000000000000000000000000000000000000000000000000000000000000000000000000000000000000000000000000000000000000000000000000000000000000000000000000000000000000000000000000000000000000000000000000000000000000000000000000000000000000000000000000000000000000000000000000000000000000000000000000000000000000000000000000000000000000000000000000000000000000000000000000000000000000000000000000000000000000000000000000000000000000000000000000000000000000000000000000000000000000000000000000000000000000000000000000000000000000000000000000000000000000000000000000000000000000000000000000000000000000000000000000000000000000000000000000000000000000000000000000000000000000000000000000000000000000000000000000000000000000000000000000000000000000000000000000000000000000000000000000000000000000000000000000000000000000000560000000000000000000000000000000000000000000000000000000000000000000000000000005755000000000000000000000000000000000000000000000000000000000000000000000000000000000000000000000000000000000000000000000000000000000000000000000000000000000000000000000000000000000000000000000000000000000000000000000000000000000000000000000000000000000000000000000000000000000000000000000000000000000000000000000000000000000000000000000000000000000000000000000000000000000000000000000000000000000000000000000000000000000000000000000000000000000000000000000000000000000000000000000000000000000000000000000000000000000000000000000000000000000000000000000000000000000000000000000000000000000000000000000000000000000000000000000000000000000000000000000000000000000000000000000000000000000000000000000000000000000000000000000000000000000000000000000000000000000000000000000000000000000000000000000000000000000000000000000000000000000000000000000000000000000000000000000000000000000000000000000000000000000000000000000000000000000000000000000000000000000000000000000000000000000000000000000000000000000000000000000000000000000000000000000000000000000000000000000000000000000000000000000000000000000000000000000000000000000000000000000000000000000000000000000000000000000000000000000000000000000000000000000000000000000000000000000000000000000000000000000000000000000000000000000000000000000000000000000000000000000000000000000000000000000000000000000000000000000000000000000000000000000000000000000000000000000000000000000000000000000000000000000000000000000000000000000000000000000000000000000000000000000000000000000000000000000000000000000000000000000000000000000000000000000000000000000000000000000000000000000000000000000000000000000000000000000000000000000000000000000000000000000000000000000000000000000000000000000000
#0293a1:13
#029371:00530000005300000000000000000000
#029391:0053535300000000
#0293b1:00000053000000530000000000000000
#029381:0023
#029350:13
#029320:00530000003300000000000000000000
#029340:0033535300000000
#029360:00000033000000330000000000000000
#029330:0023
#030380:13
#0303b0:00530000003300000000000000000000
#030390:0033533300000000
#030370:00000033000000530000000000000000
#0303a0:0023
#031360:13
#0313b0:0023000000000000
#031371:0013000000000000
#031321:000000000000000000330000000000002300000000000000000000000000000000000000000000000000000000000000
#031360:00000013000000000000000000000000
#0313b0:000000532300000000000000
#032360:14540000000000000000000000000000
#0323a0:0024000000000000
#032360:00000014540000000000000000000000
#032320:00000000002400000000000000000000
#032360:00000000000014540000000000000000
#0323a0:0024
#032360:00000000000000000000145400000000
#032320:00000024
#033370:1323000000000000
#0333b0:00330000000000000000000000000000
#033321:0013000000000000
#033361:00000053230000000000000000000000
#0333b0:0000132300000000
#033370:00000000003300000000000000000000
#033361:0000001300000000
#033321:00000000000000532300000000000000
#0333b0:0000000013333333
#033370:00000000000000000033003300330053
#034370:23
#034321:1333000000000000
#034361:00330000000000000000000000000000
#034371:00230000
#0343b0:0000133300000000
#034370:00000000003300000000000000000000
#034360:0023
#034321:0000000013230000
#034361:00000000000000000033000000000000
#0343b0:0000000000132300
#034370:00000000000000000000003300000000
#0353c0:000000000000000000000000000012220000000000000000
#035370:0000000000000013
#035320:000000000000000000000000000000000000000000000033
#036320:23
#036320:000000000000000000000000000012220000000000000000
#036380:0000000000000012
#0363c0:00000000000000000000000000000052
#037380:22
#036361:0000000000000012
#036321:00000000000000000000000000000052
#037361:22
#037321:000000000000112100000000
#037331:000000000000000000000000005200000000000000000000
#037380:000000000000132300000000
#037340:0000000000000000000000000000000000000000000000000000000000000000000000000000000000000000000000000000000000000000000000000000000000000000000000000000000000000000000000000000000000000000000000000000000000000000000000000000000000000000000000000000000000000000000000000000000000000000000000000000000000000000000000000000000000000000000000000000000000000000000000000000000000000000000000000000000000000000000000000000000000000000000000000000000000000000000000000000000000000000000000000000000000000000000000000000000000000000000000000000000000000000000000000000000000000000000000000000000000000000000000000000000000000000000000000000000000000000000000000000000000000000000000000000000000000000000000000000000000000000000000000000000000000000000000000000000000000000000000000000000000000000000000000000000000000000000000000000000000000000000000000000000000000000000000000000000000000000000000000000000000000000000000000000000000000000000000000000000000000000000000000000000000000000000000000000000000000000000000000000000000000000000000000000000000000000000000000000000000000000000000000000000000000000000000000000000000000000000000000000000000000000000000000000000000000000000000000000000000000000000000000000000000000000000000000000000000000000000000000000000000000000000000000000000000000000000000000000000000000000000000000000000000000000000000000000000000000000000000000000000000000000000000000000000000000000000000000000000000000000000000000000000000000000000000000000000000000000000000000000000000000000000000000000000000000000000000000000000000000000000000000000000000000000000000000000000000000000000000000000000000000000000000000000000000000000000000000000000000000000000000000000000000000000000000000000000000000000000000000000000000000000000000000000000000000000000000000000000000000000000000000000000000000000000000000000000000000000000000000000000000000000000000000000000000000000000000000000000000000000000000000000000000000000000000000000000000000000000000000000000000000000000000000000000000000000000000000000000000000000000000005a0000000000000000000000000000000000005800000000000000000000000000000000000000005a00000000000000000000000000000000000000000000000000000000000000000000000000000000000000000000000000000000000000000000000000000000000000000000000000000000000000000000000000000000000000000000000000000000000000000000000000000000000000000000000000000000000000000000000000000000000000000000000000000000000000000000000000000000000000000000000000000000000000000000000000000000000000000000000000000000000000000000000000000000000000000000000000000000000000000000000000000000000000000000000000000000000000000000000000000000000000000000000000000000000000000000000000000000000000000000000000000000000000000000000000000000000000000000000000000000000000000000000000000000000000000000000000000000000000000000000000000000000000000000000000000000000000000000000000000000000000000000000000000000000000000000000000000000000000000000000000000000000000000000000000000000000000000000000000000000000000000000000000000000000000000000000000000000000000000000000000000000000000000000000000000000000000000000000000000000000000000000000000000000000000000000000000000000000000000000000000000000000000000000000000000000000000000000000000000000000000000000000000000000000000000000000000000000000000000000000000000000000000000000000000000000000000000000000000000000000000000000000000000000000000000000000000000000000000000000000000000000000000000000000000000000000000000000000000000000000000000000000000000000000000000000000000000000000000000000000000000000000000000000000000000000000000000000000000000000000000000000000000000000000000000000000000000000000000000000000000000000000000000000000000000000000000000000000000000000000000000000000000000000000000000000000000000000000000000000000000000000000000000000000000000000000000000000000000000000000000
#037370:0000000000000013
#037350:0000000000000000000000000000000000000000000000000000000000330000
#037340:00000000000000000000000000000033
#038320:23
#038360:0000000000000013
#038380:0000000000000000000000000000000000000000000000000000000000330000
#038390:00000000000000000000000000000033
#0393b0:23
#0393b0:000000000000000000001300000000003300000000003300000000003300000000530000000000000000000000000000
#039370:000000000000000000000000005300000000000000000000330000000000330000000000230000000000000000000000
#039321:000000000013000033000023000000000000000000000000
#039361:000000000000000000000000000000000000005300000000000000000000000000000000000000000000000000000000
#039321:0013
#039361:000000000000002300000000
#039321:0000000000132300
#039361:00000000000000000000005300000000
#040391:130000000000000000000000000000000000000000000000000000000000000000000000000000000000000000000000000000000000000000000053000000000000000000000000000000000000000023000000000000000000000000000000000000000000000000000000000000000000000000000000000000000000000000000000000000000000000000000000000000000000000000000000000000000000000000000000000000000000000000000000000000000000000000000000000000000000000000000000000000000000000000000000000000000000000000000000000000000000000000000000000000000000000000000000000000000000000000000000000000000000000000000000000000000000000000000000000000000000000000000000000000000000000000000000000000000000000000000000000000000000000000000000000000000000000000000000000000000000000000000000000000000000000000000000000000000000000000000000000000000000000000000000000000000000000000000000000000000000000000000000000000000000000000000000000000000000000000000000000000000000000000000000000000000000000000000000000000000000000000000000000000000000000000000000000000000000000000000000000000000000000000000000000000000000000000000000000000000000000000000000000000000000000000000000000000000000000000000000000000000000000000000000000000000000000000000000000000000000000000000000000000000000000000000000000000000000000000000000000000000000000000000000000000000000000000000000000000000000000000000000000000000000000000000000000000000000000000000000000000000000000000000000000000000000000000000000000000000000000000000000000000000000000000000000000000000000000000000000000000000000000000000000000000000000000000000000000000000000000000000000000000000000000000000000000000000000000000000000000000000000000000000000000000000000000000000000000000000000000000000000000000000000000000000000000000000000000000000000000000000000000000000000000000000000000000000000000000000000000000000000000000000000000000000000000000000000000000000000000000000000000000000000000000000000000000000000000000000000000000000000
#040371:00550000000000000000000000000000
#040340:000013000023000000000000000000000000000000000000
#040320:000000000000005700000000000000000000000000000000000000000000000000000000000000000000000000000000
#040391:000000000000000000001300005300002300000000000000000000000000000000000000000000000000000000000000
#040371:000000000000000000000000000000000000000000000057000000000057000000000000000000000000000000000000000000000000000000000000000000000000000000000000000000000000000000000000000000000000000000000000
#040340:000000000000000000000000000000001300005300002300000000000000000000000000000000000000000000000000
#040320:000000000000000000000000000000000000000000000000000000000000000000000057000000000057000000000000000000000000000000000000000000000000000000000000000000000000000000000000000000000000000000000000
#040390:000000000000000000000000000000000000000000000000000000000000000000000000000000000000000000000000000000000000000000000000000000000000000000000000000000000000000000000000000000000000000000000000000000000000000000000000000000000000000000000000000000000000000000000000000000000000000000000000000000000000000000000000000000000000000000000000000000000000000000000000000000000000000000000000000000000000000000000000000000000000000000000000000000000000000000000000000000000000000000000000000000000000000000000000000000000000000000000000000000000000000000000000000000000000000000000000000000000000000000000000000000000000000000000000000000000000000000000000000000000000000000000000000000000000000000000000000000000000000000000000000000000000000000000000000000000000000000000000000000000000000000000000000000000000000000000000000000000000000000000000000000000000000000000000000000000000000000000000000000000000000000000000000000000000000000000000000000000000000000000000000000000000000000000000000000000000000000000000000000000000000000000000000000000000000000000000000000000000000000000000000000000000000000000000000000000000000000000000000000000000000000000000000000000000000000000000000000000000000000000000000000000000000000000000000000000000000000000000000000000000000000000000000000000000000000000000000000000000000000000000000000000000000000000000000000000000000000000000000000000000000000000000000000000000000000000000000000000000000000000000000000000000000000000000000000000000000000000000000000000000000000000000000000000000000000000000000000000000000000000000000000000000000000000000000000000000000000000000000000000000000000000000000000000000000000000000000000000000000000000000000000000000000000000000000000000000000000000000000000000000000000000000000000000000000000000000000000000000000000000000000000000000000000000000000000000000000000000000000000000000000000000000000000000000000000000000000000000000000000000000130000000000000000000000000000000000000000000000000000000000000000000000000000000000000000000000000000000000000000000053000000000000000000000000000000000000000000000000000000000000000000000000000000000000000000000000000000000000000000000000000000000000000000000000000000000000000000000000000000000000000000000000000000000000000000000000000000000000000000000000000000000000000000000000000000000000000000000000000000000000000000000000000000000000000000000000000000000000000000000000230000000000000000000000000000000000000000000000000000000000000000000000000000000000000000000000000000000000000000000000000000000000000000000000000000000000000000000000000000000000000000000000000000000000000000000000000000000000000000000000000000000000000000000000000000000000000000000000000000000000000000000000000000000000000000000000000000000000000000000000000000000000000000000000000000000000000000000000000000000000000000000000000000000000000000000000000000000000000000000000000000000000000000000000000000000000000000000000000000000000000000000000000000000000000000000000000000000000000000000000000000000000000000000000000000000000000000000000000000000000000000000000000000000000000000000000000000000000000000000000000000000000000000000000000000000000000000000000000000000000000000000000000000000000000000000000000000000000000000000000000000000000000000000000000000000000000000000000000000000000000000000000000000000000000000000000000000000000000000000000000000000000000000000000000000000000000000000000000000000000000000000000000000000000000000000000000000000000000000000000000000000000000000000000000000000000000000000000000000000000000000000000000000000000000000000000000000000000000000000000000000000000000000000000000000000000000000000000000000000000000000000000000000000000000000000000000000000000000000000000000000000000000000000000000000000000000000000000000000000000000000000000000000000000000000000000000000000000000000000000
#040370:000000000000000000000000000000000000000000000000000000000000000000000000000000000000000000000000000000000000000000000000000000000000000000000000000000000000000000000000000000000000000000000000000000000000000000000000000000000000000000000000000000000000000000000000000000000000000000000000000000000000000000000000000000000000000000000000000000000000000000000000000000000000000000000000000000000000000000000000000000000000000000000000000000000000000000000000000000000000000000000000000000000000000000000000000000000000000000000000000000000000000000000000000000000000000000000000000000000000000000000000000000000000000000000000000000000000000000000000000000000000000000000000000000000000000000000000000000000000000000000000000000000000000000000000000000000000000000000000000000000000000000000000000000000000000000000000000000000000000000000000000000000000000000000000000000000000000000000000000000000000000000000000000000000000000000000000000000000000000000000000000000000000000000000000000000000000000000000000000000000000000000000000000000000000000000000000000000000000000000000000000000000000000000000000000000000000000000000000000000000000000000000000000000000000000000000000000000000000000000000000000000000000000000000000000000000000000000000000000000000000000000000000000000000000000000000000000000000000000000000000000000000000000000000000000000000000000000000000000000000000000000000000000000000000000000000000000000000000000000000000000000000000000000000000000000000000000000000000000000000000000000000000000000000000000000000000000000000000000000000000000000000000000000000000000000000000000000000000000000000000000000000000000000000000000000000000000000000000000000000000000000000000000000000000000000000000000000000000000000000000000000000000000000000000000000000000000000000000000000000000000000000000000000000000000000000000000000000000000000000000000000000000000000000000000000000000000000000000000000000000000000000000000000000000000000000000000000000000000000000000000000000000000000000000000000000000000000000000000000000000560000000000000000000000000000000000000000000000000000000000000000000000000000005755000000000000000000000000000000000000000000000000000000000000000000000000000000000000000000000000000000000000000000000000000000000000000000000000000000000000000000000000000000000000000000000000000000000000000000000000000000000000000000000000000000000000000000000000000000000000000000000000000000000000000000000000000000000000000000000000000000000000000000000000000000000000000000000000000000000000000000000000000000000000000000000000000000000000000000000000000000000000000000000000000000000000000000000000000000000000000000000000000000000000000000000000000000000000000000000000000000000000000000000000000000000000000000000000000000000000000000000000000000000000000000000000000000000000000000000000000000000000000000000000000000000000000000000000000000000000000000000000000000000000000000000000000000000000000000000000000000000000000000000000000000000000000000000000000000000000000000000000000000000000000000000000000000000000000000000000000000000000000000000000000000000000000000000000000000000000000000000000000000000000000000000000000000000000000000000000000000000000000000000000000000000000000000000000000000000000000000000000000000000000000000000000000000000000000000000000000000000000000000000000000000000000000000000000000000000000000000000000000000000000000000000000000000000000000000000000000000000000000000000000000000000000000000000000000000000000000000000000000000000000000000000000000000000000000000000000000000000000000000000000000000000000000000000000000000000000000000000000000000000000000000000000000000000000000000000000000000000000000000000000000000000000000000000000000000000000000000000000000000000000000000000000000000000000000000000000000000000000000000000000000000000000000000000000000000000000
#041320:13
#041360:00000023000000000000000000000000
#0413b1:00000013002300000000000000000000
#041371:00530000
#041360:00000000001300230000000000000000
#041320:0000005300000000
#041391:00000000000000152500000000000000
#042381:1323000000000000
#0423b1:00330000000000000000000000000000
#042371:00000013002300000000000000000000
#0423b1:00330000
#042361:0000001323000000
#0423b1:00000000000000330000000000000000
#0433b1:13
#043371:00000023000000000000000000000000
#043320:00000013002300000000000000000000
#043360:00530000
#043371:00000000001300230000000000000000
#0433b1:0000005300000000
#043320:00000000000000152500000000000000
#044350:1323000000000000
#044320:00330000000000000000000000000000
#044360:00000013002300000000000000000000
#044320:00330000
#044370:0000001323000000
#044320:00000000000000330000000000000000
#0453b0:1323000000000000
#045370:00530000000000000000000000000000
#0453b0:00000013003300000000000000000000
#045370:00000000530000230000000000000000
#045361:00000000001300000000000000000000
#045321:00000000000000230000000000000000
#0463b1:13003333003333002300000000000000
#046371:00530000530000530000000000000000
#047321:1323000000000000
#047361:00530000000000000000000000000000
#047321:00000013003300000000000000000000
#047361:00000000530000230000000000000000
#047370:00000000001300000000000000000000
#0473b0:00000000000000230000000000000000
#048320:13003333003333002300000000000000
#048360:00530000530000530000000000000000
#048380:0000000000130033
#048350:00000000000000000000005300530053
#048320:00000033
#049320:23
#049351:16000000000000000000000000000000000000000000000000000000000000000000000000000056005600560056005600000000000000000000000000000000
#049361:00540000000000000000000000000000000000000000000000000000000000540054005400540000000000000000000000000000000000000000000000000000
#049371:0000000000000000000000000000005252525252525252522200000000000000
