This file was generated by Ched 2.7.0.0.
#TITLE ""
#ARTIST ""
#DESIGNER ""
#DIFFICULTY 0
#PLAYLEVEL
#SONGID ""
#WAVE ""
#WAVEOFFSET 0
#JACKET ""
#REQUEST "ticks_per_beat 480"
#00002: 4
#BPM01: 93
#00008: 01
#TIL00: ""
#HISPEED 00
#MEASUREHS 00
#00118:1400000000140000
#00114:0014000014000000
#0011a:00140000
#00112:00000014
#00218:1400000000140000
#00214:0014000014000000
#0021a:00140000
#00212:00000014
#0031a:14
#00314:0014000000001400
#00318:0000140000140000
#00312:0014
#0041a:14
#00414:0014000000001400
#00418:0000140000140000
#00412:0014
#00514:0014000014001400
#0051a:2400140000140000
#00510:41
#00618:1400140000140000
#00612:0014000014001400
#0071a:00140014
#00714:0000001400000000
#00718:0014
#00712:0000000000140000
#00719:24
#00713:24
#00812:14000014
#00818:0014000000140000
#00814:00141400
#0081a:0000001400000000
#0091a:2414140000000000
#00914:0000000014141400
#01018:1414140000000000
#01012:0000000014141400
#0111a:00141400
#01114:0000001400000000
#01112:0000000000140000
#01118:00000014
#01119:24
#01113:24
#01212:14140000
#01218:0014000000000000
#0121a:0000001400140000
#01214:00001414
#0131a:2414000000001400
#01314:0000140014140000
#01310:41
#01418:1414000000001400
#01412:0000140014140000
#01518:00140000
#01512:0000001400000000
#01519:2414
#01513:2400000000140000
#0151a:00000014
#01614:14
#0161a:0014000000000000
#01613:00140000
#01619:0000001400000000
#01612:00001414
#01618:0000000000140000
#01716:0014000000140000
#01712:00140014
#0171a:2414
#01812:1414
#01816:0014000000140000
#0181a:00140014
#0191a:00141400
#01914:0000001400000000
#01912:0000000000140014
#01918:00000014
#01913:24
#01919:24
#02114:0014000000140000
#02112:0000001400000014
#0211a:2424
#02118:00240024
#02110:41
#02214:0014000000001400
#02212:0000001400000000
#0221a:2400000024140000
#02218:0000240000000014
#0231a:14
#02312:14
#02318:00141414
#02314:0000001400140000
#02412:14141414
#0241a:0014001400140000
#02518:00140000
#02514:0000001400000000
#0251a:24
#02512:24
#02614:00140000
#02618:0000001400000000
#02612:24
#0261a:24
#02718:00140000
#02714:0000001400000000
#0271a:24
#02712:24
#02710:41
#02812:1414
#02818:0014000000140000
#02814:00140014
#0281a:0000001400000014
#02912:14
#02915:00140000
#0291f:11
#0301a:14
#03017:00140000
#03117:14
#0311a:00140000
#03112:14
#03115:00140000
#03215:14
#03212:00140000
#0321a:14
#03217:00140000
#03318:0014000000140000
#0331a:0000001400000014
#03312:2424
#03314:00240024
#0331f:21
#03418:0014000000001400
#0341a:0000001400000000
#03412:2400000024140000
#03414:0000240000000014
#03410:41
#03512:14
#0351a:14
#03514:00141414
#03518:0000001400140000
#0361a:14141414
#03612:0014001400140000
#03714:00140000
#0371a:2400001400000000
#03712:24
#03818:00140000
#03812:2400001400000000
#0381a:24
#03914:00140000
#0391a:2400001400000000
#03912:24
#0401a:1414
#04014:0014000000140000
#04018:00140014
#04012:0000001400000014
#0411a:14343400
#04116:0000001400000000
#04110:41
#04212:14343400
#04216:0000001400000000
#0431a:14343400
#04316:0000001400000000
#04412:14343400
#04416:0000001400000000
#0451a:14141400
#04516:0014000000140000
#04512:00000014
#04612:14141400
#04616:0014000000140000
#0461a:00000014
#0471a:14141400
#04716:0014000000140000
#04712:00000014
#04812:14141400
#04816:0014000000140000
#0481a:00000014
#04814:0000000000000014
#0215a:1414
#0225a:14
#02952:64
#02955:00240000
#0305a:54
#03057:00240000
#03157:64
#0315a:00240000
#03152:64
#03155:00240000
#03255:54
#03252:00240000
#0325a:54
#03257:00240000
#03352:1414
#03452:14
#04156:0000002400000000
#0415a:54
#04252:64
#04256:0000002400000000
#0435a:54
#04356:0000002400000000
#04452:64
#04456:0000002400000000
#020380:14240000
#020340:00001424
#025380:00001424
#0253a0:0000000000340000
#026340:00001424
#026320:0000000000340000
#027380:00001424
#0273a0:0000000000340000
#029320:1424
#029350:00540000
#0303a0:1424
#030370:00540000
#031370:1424
#0313a0:00540000
#031321:1424
#031351:00540000
#032351:1424
#032321:00540000
#0323a0:1424
#032370:00540000
#037320:00001424
#037340:0000000000340000
#0383a0:00001424
#038380:0000000000340000
#039320:00001424
#039340:0000000000340000
#0413a0:14343424
#041360:0000005400000000
#042320:14343424
#042360:0000005400000000
#0433a0:14343424
#043360:0000005400000000
#044320:14343424
#044360:0000005400000000
#049380:14000024
