This file was generated by Ched 2.7.0.0.
#TITLE ""
#ARTIST ""
#DESIGNER ""
#DIFFICULTY 0
#PLAYLEVEL
#SONGID ""
#WAVE ""
#WAVEOFFSET 0
#JACKET ""
#REQUEST "ticks_per_beat 480"
#00002: 4
#BPM01: 135
#00008: 01
#TIL00: ""
#HISPEED 00
#MEASUREHS 00
#00019:14
#00219:14
#00113:14
#0041a:14
#00514:14
#0061a:14
#0071a:14
#00812:14
#00918:14
#01012:14
#04618:16
#05512:0016
#05518:26
#05718:16
#05712:0016
#03912:0016
#03918:26
#0391f:21
#04112:16
#04118:0016
#04318:1616
#04518:16
#04512:0016
#04412:1616
#0131a:14
#01310:41
#01414:14
#0151a:14
#01614:14
#01718:14
#01812:14
#01918:14
#02018:14
#02112:14
#02110:41
#02218:14
#02312:14
#02418:14
#02514:14
#0261a:14
#02714:14
#02814:14
#03318:14
#0331f:11
#03414:14
#05412:16
#04718:0016
#04712:16
#04918:16
#04912:0016
#05112:1616
#05110:41
#05312:16
#05318:0016
#05218:1616
#05618:16
#05612:0016
#06118:0016
#06112:16
#06018:0016
#06012:16
#05918:0016
#05912:16
#05910:41
#0661a:1414
#06512:0014
#06518:14
#0691a:0014
#06914:14
#00313:24
#04010:41
#02910:41
#011320:14
#012320:3424
#0293a0:14
#0303a0:24
#031320:14
#032320:24
#035380:14
#036380:24
#037340:14
#038340:24
#040380:1626
#042320:1626
#048320:1626
#050380:1626
#058380:1626
#062320:1626
#0633a0:1424
#064340:1424
#067320:1424
#068380:1424
#070320:14000000340000000000000000000024
