This file was generated by Ched 2.7.0.0.
#TITLE ""
#ARTIST ""
#DESIGNER ""
#DIFFICULTY 0
#PLAYLEVEL
#SONGID ""
#WAVE ""
#WAVEOFFSET 0
#JACKET ""
#REQUEST "ticks_per_beat 480"
#00002: 4
#BPM01: 135
#00008: 01
#TIL00: ""
#HISPEED 00
#MEASUREHS 00
#00018:13000000000013001300000000000013
#0001b:00130013
#00015:00001300000000130000130000001300
#00012:00130013
#00115:1300001313130013
#0011b:00000000130000130000000013000000
#00118:00001300000000000013000000000000
#00112:00130013
#00218:13000000000013130013000000000013
#0021b:00000000130000000000001300130000
#00212:00131313
#00215:0013000000130013
#00312:13001323
#0031b:0000130000230000
#00317:00001313
#00316:0000130000130000
#0041b:13000000000000130000000013000000
#00412:00000013000000000000130000000000
#00417:0000130000230000
#00416:13001323
#0071b:1313002300000000
#00715:001300000000
#00718:000000000013000000000000000000000000000000000000
#00712:00132300
#00716:2300001300000000
#00717:0013
#00816:13000000000000130000000013000000
#00812:0000130000230000
#00817:00000013000000000000130000000000
#0081b:00001323
#01112:13
#01118:0013130000000000
#01115:00000013000000000000000000000000
#0111b:2300000000130000
#01215:13130013
#01218:00001300001300000000000000001300
#01212:0000000013130000
#0131b:13000000000000330000000000000000
#01316:1313
#01317:00000033130000000000000000000000
#01318:00000000000000000000130000000013
#01315:00000013
#01312:0000130000000013
#01310:41
#01415:13
#0141b:0013000000000000
#01419:00130000
#01417:0000001300000000
#01418:0000000000000013
#01416:0013000000000000
#01414:00130000
#01412:0000001300000000
#0151b:1313
#01512:00000033130000000000000000000000
#01517:00130000
#01516:13000000000000330000000000000000
#01518:0000000000130013
#01515:00000013
#0161b:1300001300130000
#01615:0013000000000013
#01618:00130013
#01612:1300000000130000
#01717:13000000000000130000000000000000
#0171b:00000013000000000000000000001300
#01712:0013
#01715:00000000000000000000130000000013
#01718:00000013
#01818:13
#01812:0013000000000013
#0181b:0000130000130000
#01817:0000001300000013
#01819:00000013
#01816:0000000000130000
#01814:00000013
#0201b:13
#02018:0013000000001300
#02015:0000130000000013
#02012:1300001300000000
#02016:0000000000130000
#02017:0000001300000000
#02612:0000130000130000
#02615:13000013
#0261b:0013000000000000
#02616:0000001300000000
#02618:00000000000000000000000000001313
#02619:0000000000000000000000000000000000000000000000000000000000130000
#02617:0000000000000000000000000000000000000000000000000000000000000013
#0271b:00000000000013000000002300002300
#02718:13131313000000000000000000000000
#02719:0013000000130000000000000000000000000000000000000000000000000000
#02717:0000001300000013000000000000000000001300000000000000000000000000
#02712:0000001323000000
#02716:0000000000001323
#02816:0000130000130000
#02817:23000013
#02812:13000013
#0281b:0000000000130000
#0291b:1313
#02915:00000013000000000000000013000000
#02918:0000130000130000
#02912:00000000000000130000000000001300
#02916:13
#02917:0000000000000013
#02910:41
#0301b:0013000000130000
#03017:0000001300000000
#03018:00000013
#03015:0000000000000013
#03016:0013000000000000
#03118:0000000000130000
#03115:00000013
#03117:0000000000000013
#03112:1300000000000013
#0311b:13131300
#0321b:0013000000130000
#03219:00000013
#03217:0000000000000013
#03216:0013000000130000
#03214:00000013
#03212:0000000000000013
#03318:0000000000130013
#03315:00000013
#0331b:13000000000000330000000000000000
#03317:00000033130000000000000000000000
#03312:00130000
#03316:13000000000000330000000000000000
#0331f:11
#03518:00001300000013000000000000000013
#03515:0000001300000013
#0351b:13000013
#03512:13
#03612:0000001300000000
#03617:0000001300000000
#03616:0000000000000014
#03712:13
#03717:13
#0371b:0013
#03716:0013
#0391b:2300130000130000
#03917:00001313
#03916:00000033130000000000000000001300
#03912:23000000000000330000000013000000
#0391f:21
#0401b:00000033130000000000130000001300
#04012:00001313
#04016:00130000
#04017:23000000000000330000000013000000
#04010:41
#0411b:00000013130000000000000000002300
#04117:00000000000000130000000000000000
#04112:1323
#04115:0000000000230000
#04118:00000023
#04116:00000033000000000000000000000000
#04218:0013130000000000
#04212:2300001300000000
#04215:00000013000000000000000000000000
#0421b:0023
#04216:0023
#04618:00000013000000000000000000001300
#04615:00001300230000000000000023000023
#04612:0000000000230000
#0461b:2323
#04712:00000013130000000000130000000000
#04716:00000000000000131300000013000000
#04717:00000033130000000000130000001300
#0471b:23000000000000330000000013000000
#04818:0000000000130000
#04812:00000033130000000000000000001300
#04817:00000013130000000000000000000000
#0481b:00000000000000131300000013000000
#04816:23000000000000330000000013000000
#05017:0000001300130000
#05016:00132300
#05012:2300001300130000
#0501b:2323
#05019:00000033000000000000000000000000
#0551b:00000013000000131300000023000000
#05512:2300230000230000
#05516:00000023
#05517:0000000000230000
#05612:1300000000230000
#05615:00000013000000131300000000000000
#05618:23230000
#0561b:00000023
#05616:00000023
#05617:0000000000230000
#05818:0013000000000000
#0581b:23130000
#05819:0000001300000000
#05815:00000013000000000000000000000000
#05814:0000001300000000
#05812:2323
#05817:0023
#06218:0013230000000013
#06215:00000013000000000000000013000000
#06212:2300000000230000
#0621b:23
#0631b:1313
#06312:13000013000000000000130000000000
#06317:00130000
#06316:00000000000000130000000000000000
#06318:00000013
#06315:00000013
#06515:0000000000000013
#06512:13000013000000000000000000000000
#06517:00130000
#06516:00000000000000130000000000000000
#0651b:0000000013130000
#06518:00000013
#0661b:1323
#06618:0013131300000000
#06615:00000013000000000000000000000000
#06612:1323
#07018:00000013000000000000000013001300
#07015:00001300230000000000000000130013
#07012:13
#0701b:1300000000230000
#00512:13000000000000130000000013000000
#0051b:00000013000000000000130000000000
#00516:0000130000230000
#00517:13001323
#0061b:13000000000000130000000013000000
#00612:00000013000000000000130000001300
#00617:0000130000230023
#00616:13001323
#00917:13000000000000130000000013000000
#0091b:0000130000230000
#00916:00000013000000000000130000000000
#00912:13001323
#01016:13000000000000130000000013000000
#01012:0000130000230023
#01017:00000013000000000000130000001300
#0101b:13001323
#0191b:1300001300130000
#01912:0013000013000000
#01914:00130000
#01916:0000001300000000
#01919:00130000
#01918:00000013
#01915:0000000000000013
#02112:13000000000000330000000000000000
#02117:1313
#02116:00000033130000000000000000000000
#02115:00000000000000000000130000000013
#02118:00000013
#0211b:0000130000000013
#02110:41
#02218:13000013
#02212:0013000000000000
#02214:00130000
#02216:0000001300000000
#02215:0000000000000013
#02217:0013000000000000
#02219:00130000
#0221b:0000001300000000
#02312:1313
#0231b:00000033130000000000000000000000
#02316:00130000
#02317:13000000000000330000000000000000
#02315:0000000000130013
#02318:00000013
#02412:1300001300130000
#02418:0013000000000013
#02415:00130013
#0241b:1300000000130000
#02516:13000000000000130000000000000000
#02512:00000013000000000000000000001300
#0251b:0013
#02518:00000000000000000000130000000013
#02515:00000013
#03415:0000000000130013
#03418:00000013
#03412:13000000000000330000000000000000
#03416:00000033130000000000000000000000
#0341b:00130000
#03417:13000000000000330000000000000000
#04312:2300130000130000
#04316:00001313
#04317:00000033130000000000000000001300
#0431b:23000000000000330000000013000000
#04412:00000033130000000000130000001300
#0441b:00001313
#04417:00130000
#04416:23000000000000330000000013000000
#04512:00000013130000000000000000002300
#04516:00000000000000130000000000000000
#0451b:1323
#04518:0000000000230000
#04515:00000023
#04517:00000033000000000000000000000000
#0491b:1323
#04917:00130000
#04912:00000013000000000000000000002300
#04916:00000000000000130000000000000000
#04918:0000000000230000
#04915:00000023
#0511b:00000013130000000000130000000000
#05117:00000000000000131300000013000000
#05116:00000033130000000000130000001300
#05112:23000000000000330000000013000000
#05110:41
#05215:0000000000130000
#0521b:00000033130000000000000000001300
#05216:00000013130000000000000000000000
#05212:00000000000000131300000013000000
#05217:23000000000000330000000013000000
#05312:1323
#05316:00130000
#0531b:00000013000000000000000000002300
#05317:00000000000000130000000000000000
#05315:0000000000230000
#05318:00000023
#05418:00001300230000000000000023000023
#05415:00000013000000000000000000001300
#0541b:0000000000230000
#05412:2323
#05712:13000000000000330000000000000000
#05717:13000000000000330000000000000000
#0571b:00000033130000000000230000000000
#05716:00000033130000000000000000000000
#05718:00000023
#05715:0000000000000023
#05915:13
#05912:00000013000000131300000023000000
#0591b:2300230000230000
#05917:00000023
#05916:0000000000230000
#05910:41
#0601b:1300000000230000
#06018:00000013000000131300000000000000
#06015:23230000
#06012:00000023
#06017:00000023
#06016:0000000000230000
#0611b:13000000000000330000000000000000
#06116:13000000000000330000000000000000
#06112:00000033130000000000230000000000
#06117:00000033130000000000000000000000
#06115:00000023
#06118:0000000000000023
#0641b:13000013000000000000130000000000
#06416:00130000
#06417:00000000000000130000000000000000
#06412:0013
#06415:00000013
#06418:00000013
#06712:1313
#0671b:13000013000000000000130000000000
#06716:00130000
#06717:00000000000000130000000000000000
#06715:00000013
#06718:00000013
#06918:0000000000000013
#0691b:13000013000000000000000000000000
#06916:00130000
#06917:00000000000000130000000000000000
#06912:0000000013130000
#06915:00000013
#06812:13000013000000000000130000000000
#06817:00130000
#06816:00000000000000130000000000000000
#0681b:0013
#06818:00000013
#06815:00000013
#0381b:00230000
#03818:0023
#03815:00000023
#00757:0053
#00856:53
#00957:63
#01056:53
#01158:00630000
#0115b:0000000000230000
#01152:53
#01258:00000000005300000000000000000000
#0125b:0013
#0135b:53
#01357:00530000
#01457:0000005300000000
#01452:0000005300000000
#01556:53
#01552:00530000
#01857:0000000000000053
#0195b:23
#01956:0000006300000000
#01952:0023
#02057:0000005300000000
#02152:63
#02156:00630000
#02256:0000006300000000
#0225b:0000006300000000
#0235b:00630000
#02357:63
#02452:0000001300000000
#0165b:0000001300000000
#02658:00000000000000000000000000005353
#02659:0000000000000000000000000000000000000000000000000000000000230000
#02657:0000000000000000000000000000000000000000000000000000000000000023
#02758:53535353130000000000000000000000
#02759:0023000000230000000000000000000000000000000000000000000000000000
#02757:0000002300000023000000000000000000000000000000000000000000000000
#02852:53
#02856:00230000
#02952:0000000000000053
#03056:0053000000000000
#03152:53
#03157:0000000000000053
#0325b:0053000000000000
#03256:0053000000000000
#0335b:53
#03357:00230000
#03352:00230000
#03452:63
#03456:00230000
#0345b:00230000
#03555:0000005300000000
#03657:0000005300000000
#03652:0000005300000000
#03757:53
#03752:53
#03756:0023
#0375b:0023
#03952:53000053
#03956:0000530000000023
#0405b:0000530000000023
#04057:53000053
#04152:53
#04452:0000630000000023
#04456:53000063
#04357:0000630000000023
#0435b:63000063
#0455b:63
#04757:0000530000000023
#0475b:53000053
#04852:0000530000000023
#04856:53000053
#04957:00230000
#0495b:53
#05057:0000000000230000
#05052:0000000000230000
#0505b:00005343
#05056:00005343
#05152:53000063
#05156:0000630000000023
#0525b:0000630000000023
#05257:53000063
#05352:63
#05356:00230000
#05752:53
#05757:53
#0575b:00530000
#05756:00530000
#0585b:00000013
#05856:00000013
#05857:0053
#05852:0053
#0615b:63
#06156:63
#06152:00630000
#06157:00630000
#0635b:1313
#06357:00130000
#06358:00000013
#06355:00000053
#06456:00130000
#06452:1313
#06455:00000013
#06458:00000063
#0655b:1313
#06557:00130000
#06652:1353
#06655:00000013
#06658:00000013
#0665b:0053
#06752:1313
#06756:00130000
#06755:00000013
#06758:00000063
#06857:00130000
#0685b:1313
#06858:00000013
#06855:00000053
#06956:00130000
#06952:1313
#0705b:13
#07055:00530000
#05552:53530000
#0555b:00000013
#05556:00000013
#05658:53530000
#0565b:00000013
#05656:00000013
#0595b:53530000
#05952:00000013
#05957:00000013
#06055:53530000
#06052:00000013
#06057:00000013
#04257:00000013
#04252:00000013
#0425b:0053
#04256:0053
#04655:00530000
#0465b:0013
#05452:0013
#05458:00530000
#06258:00530000
#03857:13
#03852:13
#007370:0013
#0083b0:23
#008361:13
#008321:00000023000000000000000000000000
#009371:13
#0093b1:00000023000000000000000000000000
#010361:13
#010321:00000023000000000000000000000000
#011321:13
#011351:0023000000000000
#011381:00130000
#0113b1:0000000000530000
#012381:23
#012381:00000000001300000000000000000000
#0123b1:0023
#0133b1:13000000000000332300000000000000
#013371:00000033330000000000000000000000
#014321:0000001300000000
#014361:00000023
#014370:0000001300000000
#0143b0:00000023
#015360:13000000000000332300000000000000
#015320:00000033330000000000000000000000
#017320:13
#017360:00000023000000000000000000000000
#017360:00130000
#017320:00000000000000230000000000000000
#018360:00130000
#018320:0000002300000000
#018370:0000000000000013
#0193b0:53
#019370:0023000000000000
#019360:0000001300230000
#019320:0053
#020370:0000001300000000
#0203b0:0000000000230000
#021320:13000000000000332300000000000000
#021360:00000033330000000000000000000000
#0223b0:0000001300000000
#022370:0000000000230000
#022361:0000001300000000
#022321:0000000000230000
#023371:13000000000000332300000000000000
#0233b1:00000033330000000000000000000000
#0253b1:13
#025371:00000023000000000000000000000000
#025371:00130000
#0253b1:00000000000000230000000000000000
#026371:00130000
#0263b1:0000002300000000
#026381:00000000000000000000000000001353
#026391:0000000000000000000000000000000000000000000000000000000000530000
#026371:0000000000000000000000000000000000000000000000000000000000000053
#027381:53535353230000000000000000000000
#027391:0053000000530000000000000000000000000000000000000000000000000000
#027371:0000005300000053000000000000000000000000000000000000000000000000
#028321:1323
#028361:00530000
#029321:0000000000000013
#030361:0033000000000000
#030321:0000002300000000
#031321:13
#031361:0023
#031371:0000000000000013
#0323b1:0033000000000000
#032371:0023
#032360:0013000000000000
#032320:0023
#0333b0:13000000000000332300000000000000
#033370:00000033330000000000000000000000
#033321:00130000
#033361:00000000000000332300000000000000
#034321:13000000000000332300000000000000
#034361:00000033330000000000000000000000
#0343b0:00130000
#034370:00000000000000332300000000000000
#035350:0000001300000000
#035320:00000023
#036350:13
#036320:00000023000000000000000000000000
#036371:00000013000033000000000000000000
#0363b1:00000023
#036320:0000001300000000
#036360:00000023
#037320:13
#037360:0053
#038320:23
#037371:13
#0373b1:0053
#038371:23
#039321:13000000000000332300000000000000
#039361:00000033330000000000000000000000
#039321:00000013
#039361:0000000000000053
#040321:23
#040370:13000000000000332300000000000000
#0403b0:00000033330000000000000000000000
#040370:00000013
#0403b0:0000000000000053
#041370:23
#041321:13
#041361:00000033230000000000000000000000
#0423b1:0013
#042371:00000023
#042360:0013
#042320:00000023
#0433b0:13000000000000332300000000000000
#043370:00000033330000000000000000000000
#0433b0:00000013
#043370:0000000000000053
#0443b0:23
#044361:13000000000000332300000000000000
#044321:00000033330000000000000000000000
#044361:00000013
#044321:0000000000000053
#045361:23
#0453b0:13
#045370:00000033230000000000000000000000
#046350:00130000
#046320:0023
#0473b0:13000000000000332300000000000000
#047370:00000033330000000000000000000000
#0473b0:00000013
#047370:0000000000000053
#0483b0:23
#048361:13000000000000332300000000000000
#048321:00000033330000000000000000000000
#048361:00000013
#048321:0000000000000053
#049361:23
#0493b0:13
#049370:00000023000000000000000000000000
#049370:00130000
#0493b0:00000000000000230000000000000000
#050370:0013000000000000
#050390:00000033000000000000000000000000
#0503b0:00230000
#0503b0:00001323
#050370:0000000000530000
#050361:00001323
#050321:0000000000530000
#051321:13000000000000332300000000000000
#051361:00000033330000000000000000000000
#051321:00000013
#051361:0000000000000053
#052321:23
#052370:13000000000000332300000000000000
#0523b0:00000033330000000000000000000000
#052370:00000013
#0523b0:0000000000000053
#053370:23
#053321:13
#053361:00000023000000000000000000000000
#053361:00130000
#053321:00000000000000230000000000000000
#054381:00130000
#0543b1:0023
#055321:13
#055351:00000023000000000000000000000000
#055321:00130000
#055351:00000000000000230000000000000000
#056381:13
#0563b1:00000023000000000000000000000000
#056381:00130000
#0563b1:00000000000000230000000000000000
#057321:13000000000000332300000000000000
#057361:00000033330000000000000000000000
#057370:13000000000000332300000000000000
#0573b0:00000033330000000000000000000000
#058320:0013
#058360:00000023
#058371:0013
#0583b1:00000023
#0593b1:13
#059381:00000023000000000000000000000000
#0593b1:00130000
#059381:00000000000000230000000000000000
#060351:13
#060321:00000023000000000000000000000000
#060351:00130000
#060321:00000000000000230000000000000000
#0613b1:13000000000000332300000000000000
#061371:00000033330000000000000000000000
#061360:13000000000000332300000000000000
#061320:00000033330000000000000000000000
#062380:00130000
#0623b0:0000000000230000
#063350:00000013
#064320:23
#064380:00000013
#0653b0:23
#066320:0013
#066350:00000023
#0663b1:0013
#066381:00000023
#067381:00000013
#0683b1:23
#068351:00000013
#069321:23
#070351:00130000
#070321:0000000000230000
