This file was generated by Ched 2.7.0.0.
#TITLE ""
#ARTIST ""
#DESIGNER ""
#DIFFICULTY 0
#PLAYLEVEL
#SONGID ""
#WAVE ""
#WAVEOFFSET 0
#JACKET ""
#REQUEST "ticks_per_beat 480"
#00002: 4
#BPM01: 135
#00008: 01
#TIL00: ""
#HISPEED 00
#MEASUREHS 00
#00018:1300001300130000
#0001b:00130013
#00015:0013000013000013
#00012:00130013
#00118:1300001300130000
#0011b:00130013
#00115:0013000013000013
#00112:00130013
#00218:1300001300000000
#0021b:00000000130000000033333300333333
#00215:00001300000000130000000000000000
#00212:00130000
#01115:0013130000000000
#01118:23000013000000000000000000000000
#01218:0013000000001300
#01215:0000130000000013
#01212:0000000000130000
#0131b:13000000000000330000000000000000
#01318:00000033130000000000000013000000
#01315:0000000000130000
#01312:0000000000000013
#01310:41
#0141b:13
#01418:0013000000000013
#01415:00130000
#01412:0000001300000000
#01512:00000033130000000000000000000000
#01515:13000000000000330000000013000000
#01518:0000000000130000
#0151b:0000000000000013
#01618:0013000000001300
#01615:0000130000130013
#0161b:0000001300000000
#01612:13
#01715:0000000000130000
#01718:00000033130000000000000013000000
#0171b:13000000000000330000000000000000
#01712:00000000000000000000000000000033
#0181b:0013000000000000
#01812:0000000000130000
#01818:0000001300001300
#01815:0000130000000013
#0201b:1300000000130000
#02018:0013000000000013
#02015:00130013
#02012:0000001300000000
#0261b:0000000000130000
#02615:0013000000001300
#02618:00000000130000000000000000001414
#02612:0000001300000000
#02619:0000000000000000000000000000000000000000000000000000000000140000
#02617:0000000000000000000000000000000000000000000000000000000000000014
#02918:0000130000130000
#02915:00000013
#02912:0000000000000013
#0291b:13
#02910:41
#0301b:0000000000130000
#03018:00000013
#03015:0013000000000013
#03118:0000000000130000
#03115:00000013
#03112:13
#03315:0000000000130013
#03318:00000033130000000000000013000000
#0331b:13000000000000330000000000000000
#0331f:11
#03618:00000013000013000000000000001300
#03612:00000013000013000000000000000000
#03712:13
#03715:0013
#0391b:0000000000130000
#03915:00000013
#03916:00000033130000000000000000000000
#03912:23000000000000330000000000000000
#0391f:21
#04212:0013000023000000
#04215:00130000
#04218:0000001300000000
#0421b:23
#04618:0013000000230013
#04615:00000000230000000000000023000023
#04612:23
#05818:0013000000000000
#05815:00132300
#0581b:0000001300000000
#05812:23
#06215:0013000000001300
#06218:0000230000000013
#0621b:23
#06312:1313
#0631b:00000013000000000000130000000000
#06315:00130013
#06318:00000000000000130000000000000000
#06515:0000130000000013
#0651b:00000013000000000000130000000000
#06518:00000000000000130000000013000000
#06512:1313
#00315:00130000
#00318:0013
#00312:0000000000240000
#0031a:00000024
#01912:0000001300000000
#0191b:00130000
#01918:00000013
#01915:0000000000000013
#02712:0000001300000000
#02718:14141414000000002400000000000000
#02719:0014000000140000000000000000000000000000000000000000000000000000
#02717:0000001400000014000000000000000000000000000000000000000000000000
#02714:00000000000000000000002400000000
#0271a:0000000000000024
#02812:14000013
#0281b:0000000000130000
#0321b:0013000000000000
#03212:0000000000130000
#03218:00000013
#03215:0000000000000013
#03418:0000000000130013
#03415:00000033130000000000000013000000
#03412:13000000000000330000000000000000
#0351b:13
#03515:0013000000000000
#03518:0000001300000000
#03512:00000000000000000000000000000033
#05715:13000000000000330000000023000000
#05712:00000033130000000000000000000000
#0571b:0000000000230000
#05718:0000000000000023
#06612:13
#06615:0000001323000000
#0661b:00000033000000002300000000000000
#0701b:1300000000230000
#07015:0013130000000000
#07018:00000013000000000000000000000000
#05415:0013000000230013
#05418:00000000230000000000000023000023
#0541b:23
#00415:00000033130000000000000000000000
#00412:13000000000000330000000000000000
#00418:0000000000232300
#00512:00000033130000000000000000000000
#00515:13000000000000330000000000000000
#0051b:0000000000232300
#00615:00000033130000000000000023000000
#00612:13000000000000330000000000000000
#00618:0000000000230023
#00818:00000033130000000000000000000000
#0081b:13000000000000330000000000000000
#00815:0000000000232300
#0091b:00000033130000000000000000000000
#00918:13000000000000330000000000000000
#00912:0000000000232300
#01018:00000033130000000000000023000000
#0101b:13000000000000330000000000000000
#01015:0000000000230023
#02112:13000000000000330000000000000000
#02115:00000033130000000000000013000000
#02118:0000000000130000
#0211b:0000000000000013
#02110:41
#02212:13000013
#02215:0013000000000013
#02218:00130000
#0221b:0000001300000000
#0231b:00000033130000000000000000000000
#02318:13000000000000330000000013000000
#02315:0000000000130000
#02312:0000000000000013
#02415:0013000000001300
#02418:0000130000130013
#02412:0000001300000000
#0241b:13
#02518:0000000000130000
#02515:00000033130000000000000013000000
#02512:13000000000000330000000000000000
#04012:0000000000130000
#04018:00000013
#04017:00000033130000000000000000000000
#0401b:23000000000000330000000000000000
#04010:41
#04112:1300000000000023
#0411b:0023
#04118:0000000000230000
#04115:00000033000000000000000023000000
#04312:0000000000130000
#04318:00000013
#04317:00000033130000000000000000000000
#0431b:23000000000000330000000000000000
#0441b:0000000000130000
#04415:00000013
#04416:00000033130000000000000000000000
#04412:23000000000000330000000000000000
#0451b:1300000000000023
#04512:0023
#04515:0000000000230000
#04518:00000033000000000000000023000000
#04712:0000000000130000
#04718:00000013
#04717:00000033130000000000000000000000
#0471b:23000000000000330000000000000000
#0501b:0013000023000000
#05018:00130000
#05015:0000001300000000
#05012:23
#0481b:0000000000130000
#04815:00000013
#04816:00000033130000000000000000000000
#04812:23000000000000330000000000000000
#0491b:1300000000000023
#04912:0023
#04915:0000000000230000
#04918:00000033000000000000000023000000
#0511b:0000000000130000
#05115:00000013
#05116:00000033130000000000000000000000
#05112:23000000000000330000000000000000
#05110:41
#05212:0000000000130000
#05218:00000013
#05217:00000033130000000000000000000000
#0521b:23000000000000330000000000000000
#05312:1300000000000023
#0531b:0023
#05318:0000000000230000
#05315:00000033000000000000000023000000
#05512:00000033130000000000000023000000
#05515:23000000000000330000000000000000
#05518:0000000000230000
#0561b:00000033130000000000000023000000
#05618:23000000000000330000000000000000
#05615:0000000000230000
#06118:13000000000000330000000023000000
#0611b:00000033130000000000000000000000
#06112:0000000000230000
#06115:0000000000000023
#0591b:00000033130000000000000023000000
#05918:23000000000000330000000000000000
#05915:0000000000230000
#05910:41
#06012:00000033130000000000000023000000
#06015:23000000000000330000000000000000
#06018:0000000000230000
#0641b:1313
#06412:00000013000000000000130000000000
#06418:00130013
#06415:00000000000000130000000000000000
#0671b:1313
#06715:00000013000000000000130000000000
#06718:00130013
#06712:00000000000000130000000000000000
#06812:1313
#06818:00000013000000000000130000000000
#06815:00130013
#0681b:00000000000000130000000000000000
#0691b:1313
#06915:00000013000000000000000013000000
#06918:0000130000000013
#06912:00000000000000130000130000000000
#00712:0000002323000000
#00715:23
#0381b:00230000
#03815:0023
#03818:00000023
#01155:00630000
#0125b:0013
#0135b:53
#01358:00530000
#01452:0000005300000000
#01555:53
#01552:00530000
#01855:0000000000000063
#01952:0000006300000000
#0165b:0000001300000000
#02758:54545454140000000000000000000000
#02759:0024000000240000000000000000000000000000000000000000000000000000
#02757:0000002400000024000000000000000000000000000000000000000000000000
#02852:54
#02952:0000000000000053
#0295b:53
#02958:00530000
#03055:0053000000000000
#03152:53
#0325b:0053000000000000
#0335b:53
#03358:00230000
#03558:0000006300000000
#03658:0000005300000000
#03652:0000005300000000
#03752:53
#03755:0023
#03952:53
#03956:00530000
#05755:63
#05752:00630000
#05852:00000013
#05855:0063
#06352:1313
#06355:00130013
#06652:13000013
#06655:0053
#0665b:0053
#06658:00000013
#0705b:13
#07055:00530000
#04255:00000013
#04252:0063
#04655:00530000
#04652:0013
#06258:00530000
#00452:63
#00455:00630000
#00552:00530000
#00555:53
#00655:00630000
#00652:63
#00858:00530000
#0085b:53
#0095b:00630000
#00958:63
#01058:00530000
#0105b:53
#0175b:53
#01758:00530000
#02152:63
#02155:00630000
#0235b:00630000
#02358:63
#02452:0000001300000000
#0225b:0000006300000000
#02552:63
#02555:00630000
#02658:00000000000000000000000000005454
#02659:0000000000000000000000000000000000000000000000000000000000240000
#02657:0000000000000000000000000000000000000000000000000000000000000024
#03452:63
#03455:00230000
#04057:00630000
#0405b:63
#04152:53
#04357:00630000
#0435b:63
#04456:00530000
#04452:53
#0455b:63
#04757:00630000
#0475b:63
#04856:00530000
#04852:53
#0495b:63
#05156:00530000
#05152:53
#05257:00630000
#0525b:63
#05352:53
#0505b:0053
#05058:00000013
#05458:00630000
#0545b:0013
#05555:53
#05552:00230013
#0565b:00230013
#05658:63
#06158:53
#0615b:00530000
#0595b:00230013
#05958:63
#06052:00230013
#06055:53
#0645b:1313
#06458:00130013
#06552:1313
#06555:00130000
#0675b:1313
#06758:00130013
#06852:1313
#06855:00130013
#0695b:1313
#06958:00130000
#03852:13
#0023b0:00000000000000001333333300333333
#002380:00000033
#0033b0:23
#004320:13000000000000332300000000000000
#004350:00000033330000000000000000000000
#005350:13000000000000332300000000000000
#005320:00000033330000000000000000000000
#006320:13000000000000332300000000000000
#006350:00000033330000000000000000000000
#0073b0:0013000000000000
#0073a0:003300000000
#007390:000000000033000000000000000000000000000000000000
#007380:00230000
#0083b0:13000000000000332300000000000000
#008380:00000033330000000000000000000000
#009380:13000000000000332300000000000000
#0093b0:00000033330000000000000000000000
#0103b0:13000000000000332300000000000000
#010380:00000033330000000000000000000000
#011350:00130000
#012320:23
#0123b0:00000000001300002300000000000000
#0133b0:13000000000000332300000000000000
#013380:00000033330000000000000000000000
#014320:0000001300000000
#014350:00000023
#015350:13000000000000332300000000000000
#015320:00000033330000000000000000000000
#0173b0:13000000000000332300000000000000
#017380:00000033330000000000000000000000
#017320:00000000000000000000000000001333
#018350:23
#018350:0000000000000013
#019320:0023000000000000
#019320:0000001300000000
#019350:0000000000230000
#021320:13000000000000332300000000000000
#021350:00000033330000000000000000000000
#0223b0:0000001300000000
#022380:0000000000230000
#023380:13000000000000332300000000000000
#0233b0:00000033330000000000000000000000
#025320:13000000000000332300000000000000
#025350:00000033330000000000000000000000
#0253b0:0000000000000013
#026380:23
#026380:00000000000000000000000000001454
#026390:0000000000000000000000000000000000000000000000000000000000540000
#026370:0000000000000000000000000000000000000000000000000000000000000054
#027380:54545454240000000000000000000000
#027390:0054000000540000000000000000000000000000000000000000000000000000
#027370:0000005400000054000000000000000000000000000000000000000000000000
#028320:14
#028360:0024
#0293b0:1323
#029380:00330000
#029320:0000000000000013
#030350:0033000000000000
#030320:0000002300000000
#031320:13
#031350:0023
#031380:0000000000000013
#0323b0:0033000000000000
#032380:0023
#0333b0:13000000000000332300000000000000
#033380:00000033330000000000000000000000
#034320:13000000000000332300000000000000
#034350:00000033330000000000000000000000
#035380:0000001300000000
#0353b0:00000023
#035350:0000000000000013
#035320:00000000000000000000000000000033
#036320:23
#036380:0000001300000000
#0363b0:00000023
#036321:0000001300000000
#036351:00000023
#037321:13
#037351:0053
#038321:23
#039321:13000000000000332300000000000000
#039361:00000033330000000000000000000000
#0403b1:13000000000000332300000000000000
#040371:00000033330000000000000000000000
#041321:13
#041351:00000033230000000000000000000000
#042321:0013
#042351:00000023
#0433b1:13000000000000332300000000000000
#043371:00000033330000000000000000000000
#044321:13000000000000332300000000000000
#044361:00000033330000000000000000000000
#0453b1:13
#045381:00000033230000000000000000000000
#046351:00130000
#046321:0023
#0473b1:13000000000000332300000000000000
#047371:00000033330000000000000000000000
#048321:13000000000000332300000000000000
#048361:00000033330000000000000000000000
#0493b1:13
#049381:00000033230000000000000000000000
#0503b1:0013
#050381:00000023
#051321:13000000000000332300000000000000
#051361:00000033330000000000000000000000
#0523b1:13000000000000332300000000000000
#052371:00000033330000000000000000000000
#053321:13
#053351:00000033230000000000000000000000
#054381:00130000
#0543b1:0023
#055351:13000000000000332300000000000000
#055321:00000033330000000000000000000000
#056381:13000000000000332300000000000000
#0563b1:00000033330000000000000000000000
#057351:13000000000000332300000000000000
#057321:00000033330000000000000000000000
#058351:0013
#058321:00000023
#059381:13000000000000332300000000000000
#0593b1:00000033330000000000000000000000
#060351:13000000000000332300000000000000
#060321:00000033330000000000000000000000
#061381:13000000000000332300000000000000
#0613b1:00000033330000000000000000000000
#062381:00130000
#0623b1:0000000000230000
#0663b1:00001333000000000000000000000000
#066381:00230000
#066351:0013
#066321:00000023
#0663b0:0013
#066380:00000023
#070350:00130000
#070320:0023
#070350:00000013
#070340:00000000000000000000000000330000
#070330:0000000000000033
#070320:00000000000000000000000000000023
