This file was generated by Ched 2.7.0.0.
#TITLE ""
#ARTIST ""
#DESIGNER ""
#DIFFICULTY 0
#PLAYLEVEL
#SONGID ""
#WAVE ""
#WAVEOFFSET 0
#JACKET ""
#REQUEST "ticks_per_beat 480"
#00002: 4
#BPM01: 135
#00008: 01
#TIL00: ""
#HISPEED 00
#MEASUREHS 00
#0001a:12
#0001c:0000120000120000
#00018:00000000000012001200000012000012
#00016:00001200000000120000120000001200
#00012:00120012
#00116:12000000120000120012000000001200
#0011c:00120012
#00118:00001200000012000000120000000012
#0011b:0012
#00112:0012000000001200
#0021a:12000000000012120000000000000000
#0021c:00000000120000000000001200000000
#00212:00121200
#00216:00001200000000000000120000000012
#00218:00000000000000000012000000001200
#00214:00000000000000000000000012120000
#00314:12
#0031b:0000130000230000
#00316:0000140014141400
#00312:00001323
#0031a:12
#0041b:13001313
#00412:00000013130000000000130000000000
#00417:00130000
#00416:13000000000000131300240024000000
#00414:0000000000000013
#0071b:1300002300000000
#00719:0012000000000000
#00714:001200000000
#00717:000000000012000000000000000000001200000000000000
#00712:0000120023000013
#00716:2300001414000014
#0071c:0000000000120000
#0071a:000000000000000000000000000000000012000000000000
#00715:00000012
#00816:1300130000141400
#00817:00000013000000001300000000000000
#00812:00000000000000131300000023000000
#0081b:1300130000230000
#0081a:0000000000000014
#01118:00001300000000130000000000001300
#01115:00000013000013000000000000130000
#01112:13130000000000001414140000000013
#0111b:00000000131300000000000013000000
#0111a:0000000000000000000000000000000000140014000000000000000000000000
#01117:23
#01218:14141400000000000000000000000000
#01212:00000000131300000000130000000000
#01214:0014001400000000000000000000000000000000000000001300000000000000
#01216:0000000000000013
#0121b:00000000131300000000000000001300
#01217:0000000000130000
#01219:00000013
#01312:13000000000000130000130000001300
#01317:1313
#0131b:0000130000131300
#01316:00000013130000000000000013000000
#01315:00000000000000000000000000000013
#01310:41
#01418:1300000000000013
#0141b:0013130000000000
#01417:0000001300000000
#01416:0013000000130000
#01412:0000131313001300
#01415:00000000000000000000000000130000
#0151b:00000013130000000000130000000000
#01515:0000000000001316
#01518:00000000000000000000001300000000
#01512:1313
#01516:00130000
#01517:13000000000000130000000000000000
#01612:1300001600130000
#0161b:00000000001300000000130013000000
#01614:0013000000000013
#01618:0013
#01615:00000000000000000013000000000000
#01616:00130013
#01619:00000013000000000000000000001300
#01617:00130000000000000000000000000000
#01717:13
#0171b:00000013130000000000000000000000
#01712:13000000000000131300160000000000
#01715:00000000000000000000000016000013
#01718:0000000000000016
#01716:00130000
#01818:13
#01816:0013001300130000
#01812:1300130013000013
#0181b:0013000000130000
#01819:00000013
#01814:00000013
#01817:0013
#01815:00000000000000000000000000000013
#0201b:1300001300000000
#02018:00001300001300001313130000000014
#02015:0000130000000000130000000000000000130013000000000000000000000000
#02012:1300001300001400
#02016:0000000000000014
#02014:00000000000000000000000000140000
#02612:0013000000001300
#02619:00000000000000000000000000001313
#02618:0000000000000000000000000000000000000000000000000000000000130000
#0261a:0000000000000000000000000000000000000000000000000000000000000013
#02615:1300000000000000000000000000000000000000000000000000000000000013
#02617:0013001300000000
#0261b:1300130013131300
#02616:00000000000000000013000000000000
#02614:00000000000000000000000000001313
#02613:0000000000000000000000000000000000000000000000000000000000130000
#0271b:0000001300000000
#02719:13131313000000000000000000000000
#02718:0013000000130000000000000000000000000000000000000000000000000000
#0271a:0000001300000013000000000000000000000000000024001400000000000000
#02712:00000000000013002414000000002400
#02717:00000000000000000013000000002300
#02716:00000013
#02714:13131313000000000000000000000000
#02713:0013000000130000000000000000000000000000000000000000000000000000
#02715:0000001300000013000000000000000000000000000000000000000000000000
#02816:00140000001400001212120000000000
#0281b:00000000000000000000001300000000
#02812:0014140000001300
#0281a:2400001400000000
#02818:0000000000000000000000000000000000120012000000000000130000000000
#02815:0000000000000013
#0291b:13000000000000131300000000000000
#02915:00000013130000000000000013000000
#02918:0000130000130000
#02912:1300000013000013
#02917:0000000000000013
#02910:41
#0301b:1313330013130013
#03012:3300131333001300
#03017:00000013
#03016:0000000000000013
#03115:0000000000130000
#03118:00000013
#03112:1300000000000013
#03117:13131300
#0311b:0000130000000013
#03318:0000000000130013
#03315:00000013
#03312:00000013130000000000000000000000
#0331b:13000000000000131300000000000000
#0331f:11
#03317:00000033000000000000000000000000
#03316:00000000000000330000000000000000
#0351b:13130000000000000013000000001300
#03518:00000000000013001300000013000013
#03512:1300130000130000
#03516:0014000000000000
#03515:00000000001300130000001300000000
#04615:000000001300000000000000000000000000000000130000
#0461b:0013001323002300
#04612:1300230000230000
#04618:000000000000000000001300000000000000000000000000000000000000000000000000000000000000000000230000
#04616:24000023
#04617:0000000000230000
#04712:23000013130000131300130000001300
#04718:000013
#0471b:2300001300001300
#04715:000000000000000000000000000000000013000000000000
#04716:0000000000000013
#04717:00000000230000330000000000000000
#04817:00000013130000000000130000001300
#04816:2300001300001300
#04812:000000000000000000000000230000000000000000330000000000000000000013000000000000000000130000000000
#0481b:000000000000000000000000000000000000000000130000130000000000000000001300000000000000000000000000
#05017:0000001300000000
#05012:2300131324001424
#0501b:2313000000000000
#05015:001300000000
#05018:000000000013000000000000000000000000000000000000
#0501a:0000000024140024
#05016:000000000000000000000000000000001414000000000000
#0551b:23000013000000001300000000000000
#05512:24000000130000130000230024000000
#05515:00000000000000000000000000000013
#05518:0000000000000013
#05516:00240000
#0551a:00000024
#05517:0000000000230000
#05612:1300240000232400
#05616:24000013000000000000000000000000
#0561b:00000000000000130000000000000000
#05615:00000000000000001300000000000013
#05617:0000130000230000
#05618:0000000000000013
#0561a:00000024
#05819:0000001300000013
#05812:130000000013000000000000230000000000130000000000
#05815:000000001300000000000000000000130000000000000000
#05814:0000001300000013
#05818:000000130000000000000000000000001300000000000000
#0581b:230000000000130000000000230000000013000000000000
#06218:0000000013000000230000000000000013000000001300000000000000000000
#06215:00000013000000130000001300000000
#06212:23000000001300000000230013000000
#06216:0000000000000014
#0621b:1300000000000000000000001300000000000000000000130000000000000000
#06318:16000016000000000000000016000000
#06315:00000000160000160000000000000000
#06312:1300000016131300
#0631b:0000000000130000
#06515:00000000160000160000000016001300
#06518:00000016000000000000000000000000
#06512:1300000016130000
#0651b:0000000000130000
#0661b:1313130023000013
#06618:000000001300000000000000000000000013000000000000
#06617:0000001300000000
#06612:1600001323131300
#06615:000000000013000000000000000000001300000000000000
#06616:0000000000000013
#0701a:00000014
#07016:00000000000000000000000000141400
#07012:13000000000000001300000000000014
#07015:00130013000013000013001300000000
#07018:00001300001300130000230000000000
#0701b:13130000
#0061b:13001313
#00612:0000130000130013
#00617:00000013130000000000000000000000
#00616:13000000000000131300230023002300
#0101b:1300130000130013
#01012:00000000000000131300000013000000
#01016:13130000
#01017:00000013000000001300230023002300
#01912:0013000000000000
#01914:00130000
#0191b:0000001300130000
#01919:00130000
#01918:13000000000000130013000013000000
#01915:00130000000000001300000000001300
#03415:0000000000130013
#03418:00000013
#0341b:13000013130000000000000000000000
#03412:13000000000000131300000000000000
#03416:00000033000000000000000000000000
#03417:00000000000000330000000000000000
#04912:00000013000000000000000000002600
#0491b:13000000000000130000000000000000
#04916:0013130000000000
#04917:0000001323000000
#04918:0000000000260000
#04915:00000026
#05418:0013230000000013
#05415:00000013000000001300000000000023
#05412:2300001300002300
#0541b:2300001300230000
#05417:00000023
#05416:0000000000230000
#06412:00000016000000000000130016000000
#06415:00000000160000160000000000000000
#06418:0016
#0641b:1300000000131300
#00512:13001313
#0051b:00000013130000000000130000000000
#00516:0000130000242400
#00517:13000000000000131300000000000000
#00519:0000000000000013
#00917:13130000
#00916:00000013000000001300140014000000
#0091b:00000000000000131300000023000000
#00912:1300130000230014
#0211b:13000000000000130000130000001300
#02116:1313
#02112:0000130000131300
#02117:00000013130000000000000013000000
#02118:00000000000000000000000000000013
#02110:41
#02215:1300000000000013
#02212:0013130000000000
#02216:0000001300000000
#02217:0013000000130000
#0221b:0000131313001300
#02218:00000000000000000000000000130000
#02312:00000013130000000000130000000000
#02318:00000013
#02315:00000000000000000000001300001600
#0231b:1313
#02317:00130000
#02316:13000000000000130000000000000000
#02419:0013000000000013
#02417:00130013
#02418:00000000000016000013000000000000
#0241b:1300000000130000
#02412:00000000001300000000130013000000
#02416:00130000000000000000000000000000
#02415:0013
#02414:00000013000000000000000000001300
#02516:13
#02512:00000013130000000000000000001600
#0251b:13000000000000131300000000000000
#02518:00000000000000000000160000000013
#02515:00000016
#02517:00130000
#03212:00001300000013000000001300000013
#0321b:00131313
#03216:00130000
#03217:0000001300000000
#03218:00000000000000000013000000130000
#03215:0000000000130013
#03615:13000013000000001300130000000013
#03612:0013000000000000
#03618:00000000130000130000001300001300
#0361b:0000001300001300
#03712:1313130013001300
#03714:00000000000014140000000000000000
#03718:0000000000000000000000000014001400001300000000000000000013000000
#03715:00000000000000000000130000130000
#0371b:13001300130000000000001300000013
#03812:1c000023
#0381b:00230000
#03819:0023
#03817:00000023
#03816:00230000
#03814:0023
#03912:00000013130000000000001400001300
#0391b:2300000013000013
#03916:23000000000000131300240024000000
#03917:00230000
#0391f:21
#0421b:1300000000130000
#04217:000000130000000000000000130000001300000000000000
#04213:001300000000
#04216:240000000013000000130000000000000000130000140000
#04212:0000130025000013
#0421a:000000000000000000000000000000000013000000000000
#04219:0000002500000000
#0411b:13000000000000330000000000130000
#04117:00000013130000000000000000000000
#04116:13000000000000132400240024002400
#04112:00000033000000000000130000000013
#04016:2300000013242400
#0401b:23000000000000131300000000001300
#04017:00000013130000000000000000000000
#04012:00000000230000000000001400001300
#04010:41
#0431b:00000013130000000000000000001300
#04312:2300000013000013
#04317:23000000000000131300000000000000
#0431a:00000000000000000000001400000000
#04316:0000230000242400
#04512:13000000000000330000000000130000
#04516:00000013130000002400240024002400
#04517:13000000000000130000000000000000
#0451b:00000033000000000000130000000013
#04417:2313
#04412:23000000000000131300000000001300
#04416:00000013130000000000240024000000
#0441a:00000000000000000000001400000000
#0441b:0000230000000013
#0511b:23000013130000131300130000001300
#05115:000013
#05112:2300001300001300
#05118:000000000000000000000000000000000013000000000000
#05117:0000000000000013
#05116:00000000230000330000000000000000
#05110:41
#05216:00000013130000000000130000001300
#05217:2300001300001300
#0521b:000000000000000000000000230000000000000000330000000000000000000013000000000000000000130000000000
#05212:000000000000000000000000000000000000000000130000130000000000000000001300000000000000000000000000
#0531b:00000013000000000000000000000000
#05312:13000000000000130000260000000000
#05317:0013130000000000
#05316:0000001323000000
#05315:00000026
#05318:0000000000000026
#05717:13000033130000330000000000002300
#05712:13000033130000330000000000001300
#05716:0013001300130000
#0571b:0013001300230000
#05714:00000013
#05719:00000023
#05912:23000013000000001300000024000000
#0591b:00000000130000130000230000000000
#05918:00000000000000000000000000000013
#05915:0000000000000013
#05916:0000240000230000
#0591a:24000024
#05910:41
#0601b:1300000000230000
#06017:00000013000000000000000000000000
#06012:00000000000000130000000024000000
#06018:00000000000000001300000000000013
#06016:2400130000230000
#06015:0000000000000013
#0601a:00240024
#06116:13000033130000330000000000002300
#0611b:13000033130000330000000000001300
#06117:0013001300130000
#06112:0013001300230000
#06119:00000013
#06114:00000023
#06712:190000161c0000001c00130019000000
#06715:00000000000000160000000000001400
#0671b:1300000000131300
#06818:00000016000000000000000000000000
#06812:13001c001c131300
#06815:00000000000000160000000019000000
#0681b:0000000000130000
#06817:0000000000000014
#06912:000000161c0000001c00130000001300
#06915:00000000000000160000000000000000
#0691b:1300000000130013
#06914:00000013
#06919:00000013
#00856:53
#0085b:00530000
#01457:0000005300000000
#02659:00000000000000000000000000006363
#02658:0000000000000000000000000000000000000000000000000000000000230000
#0265a:0000000000000000000000000000000000000000000000000000000000000023
#02654:00000000000000000000000000006363
#02653:0000000000000000000000000000000000000000000000000000000000230000
#02655:0000000000000000000000000000000000000000000000000000000000000023
#02759:63636363130000000000000000000000
#02758:0023000000230000000000000000000000000000000000000000000000000000
#0275a:0000002300000023000000000000000000000000000000000000000000000000
#02754:63636363130000000000000000000000
#02753:0023000000230000000000000000000000000000000000000000000000000000
#02755:0000002300000023000000000000000000000000000000000000000000000000
#03152:53
#03157:00230000
#0315b:0000000000000053
#0475b:5300002300005300
#04756:0000000000000023
#04757:00530000
#04856:5300002300005300
#04852:0000530000000023
#06358:16000016
#06355:00160000
#06352:53001653
#06455:16160000
#06458:0016
#0645b:53000063
#06452:00000016
#06555:16160000
#06552:5316
#06652:16
#0705b:13
#05552:54000014
#05556:00240000
#0555a:00000014
#05652:00540014
#05656:54
#0565a:00000014
#04652:13530000
#0465b:0013
#04657:0013
#0035b:0000000000430000
#00352:00000033
#0045b:53
#00457:00530000
#00552:63
#00556:00630000
#00656:53
#00657:00530000
#0075b:13
#00756:0014
#00957:63
#00952:00630000
#01056:53
#0105b:00530000
#01252:00000000005300000000000000000000
#0125b:00000000005300000000000000000000
#01258:0013
#01255:0013
#01357:53
#0135b:00230053
#01552:53
#01556:00230000
#01752:53
#0175b:00530000
#02256:0000006300000000
#02458:0000004600000000
#02156:63
#02152:00230063
#0235b:63
#02357:00230000
#0255b:63
#02552:00630000
#0295b:23
#02955:00530000
#02952:0000000000000053
#0305b:0053000000000000
#03052:0000005300000000
#0335b:53
#03352:00530000
#0345b:00630000
#03452:63
#03852:1c
#0425b:13
#04257:0013
#04156:53
#04157:00530000
#0395b:63
#03957:00230000
#03956:00000014
#04056:63000014
#04052:00230000
#04557:63
#04556:00630000
#04352:53
#04356:00230014
#04457:53
#0445b:00230000
#04456:00000014
#05152:6300002300006300
#05157:0000000000000023
#05156:00630000
#05257:6300002300006300
#0525b:0000630000000023
#05458:00530000
#0545b:0000002300000000
#05757:53530000
#05752:53530000
#0575b:0023002300000000
#05756:0023002300000000
#06156:63630000
#0615b:63630000
#06157:0023002300000000
#06152:0023002300000000
#05956:00240000
#0595a:64000014
#05952:00000014
#0605a:00640014
#06056:64
#06052:00000014
#0675b:63000063
#06752:391c4c19
#06755:0000000000000024
#06855:49000019
#06852:531c3c53
#06857:0000000000000024
#06952:391c4c00
#0695b:63
#01652:0000003600000000
#0043b0:13
#004370:00000023000000000000000000000000
#004370:00130000
#0043b0:00000000000000230000000000000000
#005320:13
#005360:00000023000000000000000000000000
#005360:00130000
#005320:00000000000000230000000000000000
#006360:13
#006320:00000023000000000000000000000000
#006370:00130000
#0063b0:00000000000000230000000000000000
#008360:13
#008320:00000023000000000000000000000000
#0083b0:00130000
#008370:00000000000000230000000000000000
#009370:13
#0093b0:00000023000000000000000000000000
#009320:00130000
#009360:00000000000000230000000000000000
#010360:13
#010320:00000023000000000000000000000000
#0103b0:00130000
#010370:00000000000000230000000000000000
#0123b0:00000000001300000000000000000000
#012380:0023
#012321:00000000001300000000000000000000
#012351:0023
#013371:13
#0133b1:00000023000000000000000000000000
#0133b1:00130000
#013371:00000000000000230000000000000000
#0133b1:00000013
#013371:0000000000000023
#014371:0000001300000000
#0143b1:0000000000230000
#015321:13
#015361:00000023000000000000000000000000
#015361:00130000
#015321:00000000000000230000000000000000
#017321:13
#017361:00000023000000000000000000000000
#0173b1:00130000
#017371:00000000000000230000000000000000
#018371:00130000
#0183b1:0000002300000000
#021361:13
#021321:00000023000000000000000000000000
#021321:00130000
#021361:00000000000000230000000000000000
#021321:00000013
#021361:0000000000000023
#022361:0000001300000000
#022321:0000000000230000
#0233b1:13
#023371:00000023000000000000000000000000
#023371:00130000
#0233b1:00000000000000230000000000000000
#0253b1:13
#025371:00000023000000000000000000000000
#025321:00130000
#025361:00000000000000230000000000000000
#026361:00130000
#026321:0000002300000000
#026391:00000000000000000000000000001353
#026381:0000000000000000000000000000000000000000000000000000000000530000
#0263a1:0000000000000000000000000000000000000000000000000000000000000053
#027391:53535353230000000000000000000000
#027381:0053000000530000000000000000000000000000000000000000000000000000
#0273a1:0000005300000053000000000000000000000000000000000000000000000000
#026340:00000000000000000000000000001353
#026330:0000000000000000000000000000000000000000000000000000000000530000
#026350:0000000000000000000000000000000000000000000000000000000000000053
#027340:53535353230000000000000000000000
#027330:0053000000530000000000000000000000000000000000000000000000000000
#027350:0000005300000053000000000000000000000000000000000000000000000000
#0293b0:13
#029380:00000023000000000000000000000000
#029350:00130000
#029320:00000000000000230000000000000000
#029320:0000000000000013
#030320:33
#030360:0023000000000000
#0303b1:0013330000000000
#030371:0000002300000000
#030320:0000001333000000
#030360:0000000000230000
#031320:1323
#031370:00530000
#0313b0:0000000000000013
#032370:0023000000000000
#0333b0:13
#033370:00000033230000000000000000000000
#033321:00130000
#033361:00000000000000332300000000000000
#034321:13
#034361:00000033230000000000000000000000
#0343b0:00130000
#034370:00000000000000332300000000000000
#0393b0:13
#039370:00000023000000000000000000000000
#039370:00130000
#0393b0:00000000000000230000000000000000
#040360:13
#040320:00000023000000000000000000000000
#040320:00130000
#040360:00000000000000230000000000000000
#041360:13
#041320:00000033230000000000000000000000
#041371:00130000
#0413b1:00000000000000332300000000000000
#043321:13
#043361:00000023000000000000000000000000
#043361:00130000
#043321:00000000000000230000000000000000
#044371:13
#0443b1:00000023000000000000000000000000
#0443b1:00130000
#044371:00000000000000230000000000000000
#045371:13
#0453b1:00000033230000000000000000000000
#045360:00130000
#045320:00000000000000332300000000000000
#046320:00130000
#046370:0023
#0473b0:13
#047370:00000023000000000000000000000000
#047370:00000000130000332300000000000000
#0473b0:0000005300000000
#0473b0:00000013
#047360:0000000000000053
#0483b0:23
#048361:13
#048321:00000023000000000000000000000000
#048321:00000000130000332300000000000000
#048361:0000005300000000
#048361:00000013
#048321:0000000000000053
#049361:23
#051321:13
#051361:00000023000000000000000000000000
#051361:00000000130000332300000000000000
#051321:0000005300000000
#051321:00000013
#051371:0000000000000053
#052321:23
#052370:13
#0523b0:00000023000000000000000000000000
#0523b0:00000000130000332300000000000000
#052370:0000005300000000
#052370:00000013
#0523b0:0000000000000053
#053370:23
#054380:00132300
#0543b0:0000005300000000
#055320:14
#055360:00000024000000000000000000000000
#055360:00140000
#0553a0:00000000000000240000000000000000
#056360:14
#0563a0:00000024000000000000000000000000
#056320:00140000
#056360:00000000000000240000000000000000
#057320:13000033330000332300000000000000
#057360:0053005300000000
#057371:13000033330000332300000000000000
#0573b1:0053005300000000
#0593a1:14
#059361:00000024000000000000000000000000
#059361:00140000
#059321:00000000000000240000000000000000
#060361:14
#060321:00000024000000000000000000000000
#0603a1:00140000
#060361:00000000000000240000000000000000
#0613b1:13000033330000332300000000000000
#061371:0053005300000000
#061360:13000033330000332300000000000000
#061320:0053005300000000
#063320:13
#063350:00000023000000000000000000000000
#063320:00000013
#064350:26
#0643b1:13
#064381:00000023000000000000000000000000
#0643b1:00000013
#065351:26
#065320:13
#065350:00000023000000000000000000000000
#0673b0:13
#067380:00000023000000000000000000000000
#0673b0:00000013
#067350:0000000000000054
#068350:29
#068321:13
#068351:00000023000000000000000000000000
#068321:00000013
#068371:0000000000000054
#069321:29
#0693b0:13
#069380:00000023000000000000000000000000
