This file was generated by Ched 2.7.0.0.
#TITLE ""
#ARTIST ""
#DESIGNER ""
#DIFFICULTY 0
#PLAYLEVEL
#SONGID ""
#WAVE ""
#WAVEOFFSET 0
#JACKET ""
#REQUEST "ticks_per_beat 480"
#00002: 4
#BPM01: 135
#00008: 01
#TIL00: ""
#HISPEED 00
#MEASUREHS 00
#0001a:1414
#00218:1414
#00112:1414
#00514:1414
#0051a:00140000
#00618:14
#00612:00140000
#0061a:0014
#00614:00000014
#00812:1414
#00818:00140000
#00918:1414
#00912:00140000
#01014:14
#0101a:00140000
#01012:0014
#01018:00000014
#03914:00140000
#0391a:24001414
#0391f:21
#0411a:14
#04114:00140014
#04118:0014
#0131a:14
#01314:0014
#01310:41
#01512:14
#01518:0014
#0171a:14
#01714:0014
#01918:0014
#01912:14
#0331a:14
#03318:0014
#03312:00000014
#03314:00140000
#0331f:11
#00414:00140000
#0041a:2414
#00718:14
#00712:00140000
#0071a:0014
#02814:14
#03418:0014
#03414:00140000
#0341a:14
#03412:00000014
#04012:14001414
#04018:00140000
#04010:41
#04512:14140000
#0451a:00001414
#04612:14
#04618:00000014
#04613:00340000
#04314:24140000
#04318:00001414
#04413:14140000
#04419:00001414
#06212:14
#06218:00000014
#06213:00340000
#05512:00140000
#05518:00001414
#05514:0000000000140000
#0551a:24
#0571a:14
#05712:00140000
#05718:00001414
#05714:0000000000140014
#05612:14
#0561a:00140000
#05614:00001414
#05618:0000000000140000
#05912:14
#05918:00140000
#05910:41
#0601a:14
#06014:00140000
#06112:14
#0611a:00140000
#06114:00001414
#06118:0000000000140014
#07018:14
#0701a:00340000
#03014:14
#03018:0014
#03218:14
#03214:0014
#03618:0014
#03614:14
#04718:00140000
#04712:24001414
#04912:14
#04918:00140014
#04914:0014
#0481a:14001414
#04814:00140000
#0531a:14140000
#05312:00001414
#0541a:14
#05414:00000014
#05419:00340000
#05118:24140000
#05114:00001414
#05110:41
#05219:14140000
#05213:00001414
#0351a:14
#03518:0000001400000000
#03712:14
#03714:0000001400000000
#0631a:00140000
#06314:00001414
#06318:0000000000140000
#06312:24
#0651a:00140000
#06514:00001414
#06518:0000000000140014
#06512:24
#06412:00140000
#06418:00001414
#06414:0000000000140000
#0641a:24
#06714:00140000
#0671a:24
#06818:00140000
#06812:24
#06912:00140000
#06918:00001414
#06914:0000000000140014
#0691a:24
#0211a:14
#02114:0014
#02110:41
#02218:1414
#02214:00140000
#02312:14
#02318:0014
#02414:1414
#02418:00140000
#0251a:14
#02512:0014
#02618:1414
#02614:00140000
#02712:14
#0271a:0014
#00314:24
#0581a:2424
#05812:00240000
#0421a:2424
#04212:00240000
#05012:2424
#0501a:00240000
#01213:0024
#01219:0024
#06612:2424
#0661a:00240000
#03813:24
#03819:24
#02910:41
#00354:14
#06252:64
#07058:54
#0705a:00000000000000000000000000000014
#0585a:0014
#0425a:0014
#04652:64
#0545a:54
#05052:0014
#02854:54
#0355a:64
#03558:0000002400000000
#03752:54
#03754:0000002400000000
#06652:0014
#011340:14340000
#012320:24
#014380:14
#0143a0:00342400
#016340:14
#016320:00342400
#0183a0:14
#018380:00342400
#020320:14
#020340:00342400
#028340:14
#028320:0024
#0293a0:14000024
#031320:14000024
#0353a0:14000024
#035380:0000003400000000
#037320:14000024
#037340:0000005400000000
#046320:14
#046330:00340000
#046340:0024
#0543a0:14
#054390:00340000
#054380:0024
#059340:0014
#059330:0000000000340000
#059320:00000024
#060380:0014
#060390:0000000000340000
#0603a0:00000024
#062320:14
#062330:00340000
#062340:0024
#067380:0014
#067390:0000000000340000
#0673a0:00000024
#068340:0014
#068330:0000000000340000
#068320:00000024
#070380:14
#0703a0:00000000340000000000000000000024
