This file was generated by Ched 2.7.0.0.
#TITLE ""
#ARTIST ""
#DESIGNER ""
#DIFFICULTY 0
#PLAYLEVEL
#SONGID ""
#WAVE ""
#WAVEOFFSET 0
#JACKET ""
#REQUEST "ticks_per_beat 480"
#00002: 4
#BPM01: 116
#BPM02: 120
#00008: 01
#00408: 02
#TIL00: ""
#HISPEED 00
#MEASUREHS 00
#00614:0000000000000014
#00718:0000000000000014
#00812:0000000000000014
#0091a:0000000000000014
#0101a:0000000000000014
#01114:0000000000000014
#01214:0000000000000014
#01210:0000000000000041
#01318:0000000000000014
#0131f:0000000000000011
#01418:0000000000000014
#01512:0000000000000014
#01612:0000000000000014
#02212:0000001600000000
#02210:0000004100000000
#02418:0000001600000000
#02612:0000001600000000
#02818:0000001600000000
#02812:0000000000000026
#0371a:0000000000000014
#0381a:0000000000000014
#03914:0000000000000014
#03910:0000000000000041
#04014:0000000000000014
#04118:0000000000000014
#04218:0000000000000014
#04312:0000000000000014
#04412:0000000000000014
#0451a:0000000000000014
#04614:0000001400000000
#0461a:0000000000000014
#04712:0000000000000014
#04710:0000000000000041
#04818:0000001400000000
#04812:0000000000000014
#0491a:0000000000000014
#05014:0000001400000000
#0501a:0000000000000014
#05112:0000000000000014
#05218:0000001400000000
#05212:0000000000000014
#02118:0000000000000026
#0211f:0000000000000021
#02312:0000000000000026
#02518:0000000000000026
#02712:0000000000000026
#00510:0000000000000041
#03110:0000000000000041
#000390:14
#001390:24
#002330:14
#003330:24
#004390:14
#005390:0000003434343424
#0173a0:0000000000000014
#0183a0:0000000000000024
#019320:0000000000000014
#020320:0000000000000024
#022380:0000000000000016
#023380:0000002600000000
#024320:0000000000000016
#025320:0000002600000000
#026380:0000000000000016
#027380:0000002600000000
#028320:00000000000000000000000000001636
#029320:00360036003626000000000000000000
#0293a0:0000000000000014
#0303a0:0000000000000024
#031340:0000000000000014
#032340:0000000000000024
#033380:0000000000000014
#034380:0000000000000024
#035320:0000000000000014
#036320:0000000000000024
#053390:0000000000000015
#054370:0000000000000035
#055390:0000000000000035
#056370:0000000000000025
#057320:0000000000000015
#058340:0000000000000035
#059320:0000000000000035
#060340:0000000000000035
#061340:0000000000000025
