This file was generated by Ched 2.7.0.0.
#TITLE ""
#ARTIST ""
#DESIGNER ""
#DIFFICULTY 0
#PLAYLEVEL
#SONGID ""
#WAVE ""
#WAVEOFFSET 0
#JACKET ""
#REQUEST "ticks_per_beat 480"
#00002: 4
#BPM01: 116
#BPM02: 120
#00008: 01
#00408: 02
#TIL00: ""
#HISPEED 00
#MEASUREHS 00
#00018:13
#00015:00000000000000000013130013000000
#0001b:00000000000000000000000000003333
#00112:13
#0011b:00000000000000000013130013000000
#00115:00000000000000000000000000003333
#00218:13
#00215:00000000000000000013130013000000
#0021b:00000000000000000000000000003333
#00312:13
#0031b:00000000000000000013130013000000
#00315:00000000000000000000000000003333
#00418:13
#00616:14000014
#00612:0013130000140014
#0061b:00000013001300000000000000000000
#00615:00000000000000130000000000000000
#00618:0013
#0061a:00000000000000000000001400000000
#0051a:0000000000000014
#00516:0000002424242400
#00510:0000000000000041
#0071b:0013130000000000
#00712:00000013001300000000001400001400
#00718:00000000000000130000000000000000
#00715:0013
#0071a:0000000000140000
#00716:14000014
#00812:14000000001300130000000014000000
#00818:0013000000000000
#00815:00000013000000000000000000000000
#0081b:00131300
#00816:0000000000140000
#0081a:00000000000000000000001400001400
#0091a:14000014
#00915:0013000000000026
#00918:00000013000000000000000000000000
#00912:00000000130000001300001400000000
#0091b:00000000001300130000000000000000
#00916:0000000000140000
#01018:1313000000130000
#01012:00130000000000000013000000001300
#01015:00000000130000130000000013000000
#0101b:00000000001300001300003300001300
#01115:1313000000130000
#0111b:00130000000000000013000000000000
#01112:00000000001300001300003300000000
#01118:00000000130000130000000013000000
#01318:13000000130000000013000013000000
#0131b:00001300000000130000000000002300
#01315:00130000001300001300000000000000
#01312:00000013000000000000000000001300
#0131f:0000000000000011
#01418:13001300001300000000130013000000
#01415:00130013000000000013000000000000
#01412:00000000000000130000001300001300
#0141b:0000000013000013
#01515:13001300001300000000130013000000
#01518:00130013000000000013000000001300
#0151b:00000000000000130000001300000000
#01512:00000000000000001300000000000013
#01618:13000000000000000013000000000000
#01612:00130000000000000000130000000000
#0161b:00001300130000130000000013000013
#01615:00000013001300001300003300001300
#01715:13000000000000000013000000000000
#0171b:00130000000000000000130000001300
#01712:00001300130000130000000013000000
#01718:00000013001300001300003300000000
#01716:0000000000000013
#01816:0000001300140000
#01817:0013000000000013
#01812:0000000000000013
#02017:0013000000001300
#0201b:0000130000130000
#02012:0000000013000013
#02015:0000001300000000
#02016:13
#01912:0000000000000013
#01917:0000001300000013
#01916:0013000000140000
#02212:1300002600130013
#02215:0013000000001300
#0221b:0013000013000000
#02218:0000130000130026
#02210:0000004100000000
#02315:13000013
#02318:00130000001300001600000013000000
#02312:00000013000016000000230000000000
#0231b:0000000000230000
#0241b:1300000000130013
#02418:0013002600001300
#02412:0013000013000026
#02415:0000130000130000
#02518:1300001600230000
#02515:00130000001300000000230000000000
#0251b:00000013000000000000000013000000
#02512:00001613
#02618:1300001613000026
#02612:0013002600130016
#02615:00130013
#0261b:0013000000130000
#02712:00130000002600000000240000000000
#02718:00130000000026000000000000001600
#02716:00000014
#0271a:0000000000140000
#02815:13001300000000000013000000000000
#02818:00130000000000001300130000002600
#02816:00140014
#02812:00000000000016000000000000000026
#0281a:0000002400000000
#02918:00260026000026000000000000001600
#0291a:0014
#02916:0000000000140000
#02912:00000000002600000000000014000000
#03016:00131313
#03017:1300000000130000
#03012:0000001300000013
#0301b:00001313
#0311b:1313001300130000
#03116:13140000
#03118:00001313
#03112:0000000000000014
#03110:0000000000000041
#03217:00131313
#03216:1300000000130000
#0321b:0000001300000013
#03212:00001313
#03312:1313001300130013
#03316:00140000
#03315:00001313
#03317:13
#0331b:0000000000000013
#03415:0013000013001300
#0341b:0013001300000013
#03418:1300130000130000
#03412:0000000000130000
#03416:0000000000000013
#03512:13160016
#0351a:0000000000000014
#03517:13
#03518:0000001600000000
#03516:0000000016000024
#03514:0000000000160000
#03612:0000001400000026
#03618:00000000000000000000000000001632
#03616:0000002400000000
#03716:3212320000240000
#03718:00321232003200000000000000000000
#0371b:0000000000000013
#0371a:0024
#03712:0000000000002426
#0381b:0000130013001313
#03812:13001313
#03815:0013000000130000
#03817:0000001300000000
#03912:1313001313000013
#03916:00140000
#03915:0000000000131300
#03917:13
#03918:0000000000000026
#03910:0000000000000041
#04012:0000130013001313
#0401b:13001313
#04018:0013000000130000
#04016:0000001300000000
#0411b:1313001313000013
#04116:13140000
#04118:0000000000131300
#04112:0000000000000026
#04218:0013000013001300
#04212:0013001300000013
#04215:1300130000130000
#0421b:0000000000130000
#04217:0000000000000013
#04318:00160016
#04312:0000001600000014
#04316:1300000000160024
#0431b:13
#04314:0016
#0441a:1400001400000000
#04412:0000000014000016
#04416:14000000000024001400000000000032
#04418:0000000000000026
#04518:32001232323200000000000000000000
#04516:0000320012320032003200320000000000000000240000000000000024000000
#04512:0024
#0451a:00000024
#04612:14000014001400140000143400001400
#04616:0000140014000014
#0461a:0024002400001400
#0471a:1424142400241400
#04716:00000014000000140000000000002400
#04712:00000000001400001400000014000000
#04710:0000000000000041
#05018:16000016001600160000260016001600
#05015:00000000130000000000001300000000
#05012:0023002300000000
#05118:16000016001600160000260016000000
#05112:00000000130000000000001300002600
#05115:0023002300000000
#05312:16000016001600160000260016001600
#05318:0023002300000016
#0531b:00000000130000000000001300000000
#05412:0012141614121416
#0541c:0000121200000012
#0541a:00001212
#05418:0000000000120000
#05512:1412141614121400
#0551c:0000001212000000
#0551a:1200000000120000
#05518:0000000000001216
#05618:0000001600000016
#0561c:0012000000120000
#0561a:00141414
#05612:0000121200000012
#05614:00001212
#05616:0000000000120000
#0571a:14141414
#05718:0000001600000000
#0571c:0012000000120000
#05712:0000001212000016
#05714:1200120000120000
#05716:00000012
#05812:0012141614121416
#0581c:0000121200000012
#0581a:00001212
#05818:0000000000120000
#05912:1412141614121400
#0591c:0000001212000000
#0591a:1200120000120000
#05918:0000000000001216
#06018:0000001600000016
#0601c:0012000000120000
#0601a:00141414
#06012:0000001200000016
#06015:0012000000000000
#06014:0012
#06112:1412141600000000
#0611a:14140000
#0611c:0012000000000000
#06118:0000001632323200
#06116:0000000032323200
#01215:13000000130000000013000013000000
#01212:00001300000000130000000000000000
#01218:00130000001300001300000000000000
#0121b:00000013000000000000000000000000
#01210:0000000000000041
#0481a:14000014001400140000143400001400
#04816:0000140014000014
#04812:0024002400001400
#04912:1424142400241400
#04916:00000014000000140000000000000000
#0491a:00000000001400001400000014000000
#04918:0000000000000026
#05212:16000016001600160000260016001600
#05218:00000000130000000000001300000000
#0521b:0023002300000000
#02112:00000000002c0000
#0211f:0000000000000021
#00152:53
#00058:53
#00258:53
#00352:53
#00458:53
#0055a:0000000000000014
#00752:0000000000000014
#00955:0000000000000016
#01058:0000000000530000
#01358:00000013
#01352:0000000000000053
#01458:00000000001300000000000000000000
#01455:00000053000000000000000000000000
#0145b:0000000000000063
#0165b:00000013
#01652:0000000000530000
#0175b:0000000000630063
#01756:0000000000000063
#01752:00000013
#01857:0063000000000053
#01856:0000006300140000
#01852:0000000000000053
#02057:0053000000002300
#0205b:0000230000530043
#02052:0000000023000033
#02055:0000005300000000
#02056:23
#01952:0000000000000053
#01956:0053000000140000
#01957:0000005300000000
#02152:000000000000001c
#02352:00000053000016000000530000003300
#02358:00530000000000000000000023000000
#02355:00000023
#0235b:0000000000530043
#02555:00630000000000000000530000001300
#0255b:00000063000000000000000023000000
#02558:0000001600530013
#02552:00000023
#02752:00530000000000000000540000003400
#02758:00530000000016000000000000004600
#02756:00000024
#02958:0000001600000016
#03052:0000005300000053
#03057:0000000000530000
#03056:0023
#0305b:00000023
#0325b:0000006300000063
#03256:0000000000630000
#03252:00000023
#03257:0023
#03352:0000000000000053
#03357:23
#0335b:0000000000000013
#03455:0053000000000000
#0345b:0000006300000053
#03458:0000000000630000
#03456:0000000000000053
#03656:0014006400140000
#03652:0014006400000056
#03658:0000000000000056
#0365a:0000000000140000
#03556:0000000000000054
#0355a:0000000000000054
#03552:23
#03557:23
#03756:0022000000000000
#03758:0022004600000000
#0375b:0000000000000053
#03752:0000003600000016
#03855:0053000000530000
#03857:0000005300000000
#0385b:0000000023000063
#03852:00000023
#03952:0000000000000063
#03957:23
#03958:0000000000000016
#04058:0063000000630000
#0405b:00000023
#04052:0000000023000053
#04056:0000006300000000
#0415b:0000000000000063
#04156:23
#04152:0000000000000016
#04258:0063000000000000
#04252:0000005300000063
#04255:0000000000530000
#04257:0000000000000063
#04352:0000000000000064
#04356:2300000000000064
#0435b:23
#0445a:2400005400440000
#04456:2434005424440000
#04452:0034000024000066
#04458:0000000000000066
#04558:0022004600000000
#04556:0022000000000014
#04552:0000003600000000
#04656:0000000064000014
#04652:0000000000240064
#05352:0000000000000056
#05358:0000000000000016
#05452:0022542654225426
#0545c:0000002200000022
#05458:0000000000220000
#0545a:00005252
#05552:5422542654225400
#05558:0000000000000066
#0555a:52
#05658:0000002600000026
#0565c:0022000000220000
#0565a:00646464
#05652:0000002200000022
#05654:00006262
#05656:0000000000220000
#0575a:64646464
#05758:0000002600000000
#0575c:0022000000220000
#05752:0000000000000056
#05754:62
#05852:0022542654225426
#0585c:0000002200000022
#0585a:00005252
#05858:0000000000220000
#05952:5422542654225400
#05958:0000000000000066
#0595a:52
#06058:0000002600000026
#0605c:0022000000220000
#0605a:00646464
#06052:0000002200000026
#06054:0052
#06152:5422545600000000
#0615a:64640000
#0615c:0022000000000000
#06158:0000005600000012
#06156:0000000000000012
#03156:23
#03152:0000000000000014
#04752:0054
#04756:0000000000000014
#01155:0000000000630000
#01255:00000013
#01558:00000063000000000000000000000000
#01555:00000000001300000000000000000000
#04856:0000000054000014
#0485a:0000000000240054
#0495a:0064
#04958:0000000000000016
#05058:0000000000000016
#05252:0000000000000016
#02852:0000003600000000
#0285a:0000004400000000
#05152:0000000000000016
#000380:13
#0003b0:00000000000000000000000000003333
#0013b0:23
#000321:00000000130000230000000000000000
#001321:13
#001351:00000000000000000000000000003333
#002351:23
#001380:00000000130000230000000000000000
#002380:13
#0023b0:00000000000000000000000000003333
#0033b0:23
#002321:00000000130000230000000000000000
#003321:13
#003351:00000000000000000000000000003333
#004351:23
#003380:00000000130000230000000000000000
#004380:13
#0053b0:0000002300000000
#005320:0000000000000014
#006320:24
#0063a0:0000000000000014
#0073a0:24
#007360:0000000000000014
#0083a0:24
#008360:0000000000000014
#009320:24
#010380:0000000000130000
#0103b0:00000000000000000000003323000000
#011350:0000000000130000
#011320:00000000000000000000003323000000
#0113b0:0000000000000013
#0123b0:23
#0123b0:0000000000132300
#012320:0000000000000013
#013320:23
#013320:0000000000132300
#013320:0000000000000013
#014350:23
#014350:00000013000000000000000000000000
#014320:00000000002300000000000000000000
#0143b0:0000000000000013
#015380:23
#015380:00000013000000000000000000000000
#0153b0:00000000002300000000000000000000
#016320:0000000000130000
#016350:00000000000000000000003323000000
#0173b0:0000000000130000
#017380:00000000000000000000003323000000
#0173b0:0000000000000013
#018370:0033000000000000
#0183b0:0000002300000000
#017361:0000000000000013
#018321:0023000000000000
#018361:0000001300000000
#018321:0000000000230000
#018321:0000000000000013
#019361:0033000000000000
#019321:0000002300000000
#018370:0000000000000013
#0193b0:0023000000000000
#019370:0000001300000000
#0193b0:0000000000230000
#019320:0000000000000013
#020360:53
#020320:0023000000000000
#020371:0013000000000000
#0203b1:00530000
#020381:0000002300000000
#020350:0000001300000000
#020320:0053
#020360:0000000000230000
#0203b1:0000000000130023
#020371:00000053
#021321:00000000001c002c
#023381:00130000000000000000000000000000
#0233b1:00000023000000000000000000000000
#023320:00000013000000000000000000000000
#023350:00000000002300000000000000000000
#023320:0000000000130023
#023350:00000053
#0233b1:0000000000130023
#023381:00000053
#025351:00130000000000000000000000000000
#025321:00000023000000000000000000000000
#0253b0:00000013000000000000000000000000
#025380:00000000002300000000000000000000
#025350:0000000000130023
#025320:00000053
#025381:0000000000130023
#0253b1:00000053
#027321:13330000000000000000000000000000
#027351:00000023000000000000000000000000
#027380:00130000000000000000000000000000
#0273b0:00000023000000000000000000000000
#027320:0000000000140024
#027360:00000054
#029320:0000000000000013
#030320:0023000000000000
#0303b1:0013002300000000
#030320:0000001300230000
#030360:0053
#030371:0000000000130023
#0303b1:00000053
#030320:0000000000000013
#031360:53
#031320:0023000000000000
#031320:0000001323000000
#031350:0000000000132300
#0313b0:0000000000000013
#0323b0:0023000000000000
#032321:0013002300000000
#0323b0:0000001300230000
#032370:0053
#032361:0000000000130023
#032321:00000053
#0323b0:0000000000000013
#033370:53
#0333b0:0023000000000000
#0333b0:0000001323000000
#033380:0000000000132300
#033320:0000000000000013
#034350:0033000000000000
#034320:0000002300000000
#0343b1:0000001300000033
#034381:0000000000330000
#035371:33
#0353b1:0023000000000000
#034360:0000000000000013
#035320:33
#035360:0023000000000000
#0353a0:0000000000000014
#036360:0024000000000000
#035361:0000000000000014
#036321:0024000000000000
#036361:0000001400000000
#0363a1:0000000000240000
#036320:0000001400000000
#036360:0000000000240000
#036320:0000000000000016
#037360:3232320000000000
#037320:0000002600000000
#036381:00000000000000000000000000001632
#037381:00325232003226000000000000000000
#0373b1:0000000000000013
#038381:0023000000000000
#038350:0013000000000000
#038320:0000002300000000
#038371:0000001300000000
#0383b1:0053
#038381:0000000000230000
#038350:0000000000130000
#038320:00000053
#038360:0000000000000023
#0383b1:0000000000000013
#039371:53
#0393b1:0023000000000000
#0393b1:0000001300000000
#039381:0023
#0393b1:0000000000130000
#039381:00000023
#039321:0000000000000013
#040351:0023000000000000
#040380:0013000000000000
#0403b0:0000002300000000
#040361:0000001300000000
#040321:0053
#040351:0000000000230000
#040380:0000000000130000
#0403b0:00000053
#040370:0000000000000023
#040321:0000000000000013
#041361:53
#041321:0023000000000000
#041321:0000001300000000
#041351:0023
#041321:0000000000130000
#041351:00000023
#0413b1:0000000000000013
#042381:0033000000000000
#0423b1:0000002300000000
#042320:0000001300000033
#042350:0000000000330000
#043360:33
#043320:0023000000000000
#042371:0000000000000013
#0433b1:33
#043371:0023000000000000
#043321:0000000000000014
#044361:54
#044321:0024000000000000
#043360:0000000000000014
#0443a0:54
#044360:0024000000000000
#044360:0000001400240000
#044320:0054
#0443a1:0000001400240000
#044361:0054
#044381:0000000000000016
#045381:32003232323226000000000000000000
#044320:0000000000000016
#044360:00000000000000000000000000000032
#045360:0000320052320032003200320000000000000000000000000000000000000000
#045320:0000002600000000
#0453a0:0000000000000014
#0463a0:24
#046360:0014
#0463a0:0000000000240000
#046321:00000000000000000000143400000000
#046361:00000024
#046321:0000000000000014
#047361:24
#047321:0014
#047361:0000000000240000
#047321:0000000000000014
#048321:24
#048361:0014
#048321:0000000000240000
#0483a0:00000000000000000000143400000000
#048360:00000024
#0483a0:0000000000000014
#049360:24
#0493a0:0014
#049360:0000000000240000
#049320:0000000000000013
#050350:23
#050350:0000000013230000
#050350:0000000000000013
#051320:23
#051320:0000000013230000
#0513b0:0000000000000013
#052380:23
#052380:0000000013230000
#052380:0000000000000013
#0533b0:23
#0533b0:0000000013230000
#053320:0000000000000016
#054320:0052545654525456
#055320:5452545654525426
#0543c1:0000001200000032
#0543a1:00005252
#054381:0000000000320000
#0553a1:52
#055381:0022000000000000
#055381:0000000000000016
#0563c1:0052000000520000
#0563a1:00545454
#056381:0000005600000056
#0573a1:54545454
#0573c1:0052000000520000
#057381:0000005600000026
#056320:0000001200000032
#056340:00005252
#056360:0000000000320000
#057340:52
#057360:0022000000000000
#057320:0000000000000016
#058320:0052545654525456
#059320:5452545654525426
#0583c1:0000001200000032
#0583a1:00005252
#058381:0000000000320000
#0593a1:52
#059381:0022000000000000
#059381:0000000000000016
#0603c1:0052000000520000
#0603a1:00545454
#060381:0000005600000056
#0613a1:54540000
#0613c1:0052000000000000
#061381:0000003632323222
#060320:0000001200000000
#060340:0052
#060360:0000000000220000
#060320:0000000000000016
#061320:5452543600000000
#061360:0000000032323222
