This file was generated by Ched 2.7.0.0.
#TITLE ""
#ARTIST ""
#DESIGNER ""
#DIFFICULTY 0
#PLAYLEVEL
#SONGID ""
#WAVE ""
#WAVEOFFSET 0
#JACKET ""
#REQUEST "ticks_per_beat 480"
#00002: 4
#BPM01: 116
#BPM02: 120
#00008: 01
#00408: 02
#TIL00: ""
#HISPEED 00
#MEASUREHS 00
#00018:13
#0001b:00000000330000330033330000000000
#00115:13
#00112:00000000330000330033330000000000
#0021b:13
#00218:00000000330000330033330000000000
#00312:13
#00315:00000000330000330033330000000000
#0051b:0000000000000013
#00510:0000000000000041
#00615:13000013
#00618:0013000013000000
#00612:0000130000130000
#0061b:0000001300000013
#00712:1300000000000013
#00718:0013000000000000
#00715:0000130000160000
#0071b:0000001313000000
#00818:13000013
#00815:0013000013000000
#0081b:0000130000130000
#00812:0000001300000013
#0091b:1300000000000023
#00915:0013000000160000
#00918:00130000
#00912:0000001313000000
#01015:00001313
#01018:0000001300130000
#01012:00330000000000000000000000001300
#0101b:00130000
#01118:00001313
#01115:0000001300130000
#0111b:00330000000000000000000000001300
#01112:0000130000000013
#01215:13000013
#01218:0013000000130000
#01212:0000000000000013
#0121b:00000033330000000000000000001300
#01210:0000000000000041
#01318:13000013
#01315:0013000000130000
#0131f:0000000000000011
#01312:00000033330000000000000000002600
#01418:13000013000000000000000000000000
#01415:0000000013000000000000000000000033003313330033000000000000000000
#01412:00000000000000130000000000000000
#0141b:0000000000000013
#01515:13000013000000000000000000000000
#01518:0000000013000000000000000000000033003313330033000000000000001300
#0151b:00000000000000130000000000000000
#01512:0000000000000013
#01612:1313000000130000
#01618:00130000000000000013000000000000
#0161b:00000000000000130000000000001300
#01615:00000033330000001300003300000013
#0171b:1313000000130000
#01715:00130000000000000013000000000000
#01712:00000000000000130000000000001300
#01718:00000033330000001300003300000000
#01815:0013000000000000
#01812:0000001300000000
#0181b:0000000000000013
#01918:0013000000000013
#0191b:0000001300000000
#01912:0000000000000013
#02015:0000001300000000
#0201b:0000001300000000
#02012:0000000000000014
#0201a:0000000000000014
#0221b:00130013
#02215:00131300
#02218:0000000000130000
#02212:0000002300000023
#02210:0000004100000000
#02318:13000000003300000000000000000000
#02315:00130000000000000000000000000000
#0231b:00000013000000000000000000000000
#02312:0000000000260000
#02615:00130013
#02618:0000001300130000
#0261b:0013
#02612:0000002300000023
#02718:13000000003323000000000000000000
#02715:00130000003323000000000000000000
#02712:00000013000000000000260000000000
#0271b:00000013000000000000000000000000
#02912:0000000000000014
#0291a:0000000000000014
#03015:00130000
#03018:0000001300000013
#0301b:0000000000130000
#03115:0000130000130000
#0311b:0000001300000000
#03118:0000000013000016
#03112:00000013
#03110:0000000000000041
#03218:00130000
#03215:0000001300000013
#03212:0000000000130000
#03318:0000130000130000
#03312:0000001300000016
#03315:0013
#0331b:00000013
#03515:0000130000130000
#0351b:0000001300000000
#03518:0013
#03512:00000013
#0351a:0000000000000024
#03816:0000140000140000
#0381a:0000001400000014
#03912:0000140000140000
#0391a:0000001400000024
#03916:00001414
#03910:0000000000000041
#04215:0000141400000014
#0421a:0000141400000014
#04217:0000000000140000
#04212:0000000000140000
#04316:00140000
#04312:0000001400000024
#0431a:0014
#04314:0000000000140000
#04318:00000014
#04016:0000140000140000
#04012:0000001400000014
#0411a:0000140000140000
#04112:0000001400000024
#04116:00001414
#03412:0000131300000013
#03415:0000000000130000
#03418:0000131300000013
#0341b:0000000000130000
#04612:14140014
#04616:0014000014000000
#0461a:0000001400140000
#0481a:14140014
#04816:0014000014000000
#04812:0000001400140000
#04716:00001414
#04712:0000002400000024
#0471a:0000000000240000
#04710:0000000000000041
#04916:00001414
#0491a:0000002400000024
#04912:0000000000240000
#0501a:1400001400000014
#05012:0014140000140000
#05016:00001414
#05112:0000001400000024
#05116:00001414
#0511a:0000000000140024
#05314:1400000000000012
#05318:14
#0531a:0000002400000012
#05316:00002424
#05312:0000000000240000
#05414:0000000000120000
#0541a:0000121200000000
#05514:0000001200000012
#05516:0012
#05518:0000000000120000
#0551a:00000012
#05614:0000121200000000
#0561a:0000000000120000
#0571a:0000001200000012
#05716:0000120000120000
#05718:0012
#05714:00000012
#0581a:0000121200000000
#05814:0000000000120000
#02412:00130013
#02418:00131300
#02415:0000000000130000
#0241b:0000002300000023
#02515:13000000003300000000000000000000
#02518:00130000000000000000260000000000
#02512:00000013000000000000000000000000
#02818:00130013
#02815:0000001300130026
#02812:0013
#0281b:0000001300000000
#05918:0000120000120000
#05914:0000001200000000
#05916:0012
#0591a:00000012
#06016:0000000000000012
#0041b:13
#00412:13
#02118:0000000000260000
#0211f:0000000000000021
#03612:0000002400000000
#0361a:0000000000000024
#0441a:0000002400000000
#04412:0000000000000024
#0451a:0000000000000024
#0521a:0000002400000024
#05212:0000002400000024
#03712:0000000000000025
#03719:0000000000000025
#00058:53
#00155:63
#0025b:63
#00352:53
#01258:0053000000000000
#01458:00000053000000000000000000000000
#01452:00000000000000530000000000000000
#01455:0000000000000000000000000000000000000023000000000000000000000000
#01555:00000063000000000000000000000000
#0155b:00000000000000630000000000000000
#01558:0000000000000000000000000000000000000023000000000000000000000000
#01652:0053000000530000
#0175b:0063000000630000
#01752:0000000000000053
#01855:0053000000130000
#01852:0000005300000000
#0185b:0000000000000063
#01958:0063000000130053
#0195b:0000006300000000
#01952:0000000000000053
#02055:0000006300000000
#0205b:0000006300000000
#02052:0000000000000014
#0205a:0000000000000014
#02158:0000000000000016
#02358:0000001300000000
#0235b:00000063000000000000000000000000
#02352:0000000000000016
#02558:0000000000000016
#02552:00000053000000000000000000000000
#02555:0000001300000000
#02752:00000053000000000000000000001600
#0275b:00000053000000000000000000000000
#02755:0000001300000000
#02758:0000001300000000
#02955:0000001600000000
#02952:0000000000000014
#0295a:0000000000000014
#03058:0000006300000063
#0305b:0000000000630000
#03158:0000000000000016
#03255:0000005300000053
#03252:0000000000530000
#03352:0000000000000016
#03652:0000005400000000
#0365a:0000000000000064
#0355a:0000000000000054
#03756:0000001400000000
#03752:0000000000000015
#03759:0000000000000015
#0385a:0000005400000054
#03856:0000000000540000
#0425a:0000005400000054
#04257:0000000000540000
#04255:0000005400000054
#04252:0000000000540000
#04352:0000000000000054
#0445a:0000005400000000
#04452:0000000000000054
#04556:0000001400000000
#0455a:0000000000000014
#04052:0000006400000064
#04056:0000000000640000
#03452:0000006300000063
#03455:0000000000630000
#03458:0000006300000063
#0345b:0000000000630000
#0505a:0000000000000064
#0525a:0014006400000064
#05256:0014000000140000
#05252:0000000000140054
#05152:0000000000000054
#05354:24
#05358:24
#0535a:0044000000000000
#05352:0034000000000000
#01355:0063000000000000
#06056:0000000000000052
#0045b:53
#00452:63
#06152:0000000000000012
#0055b:0000000000000013
#00752:0000000000000013
#0395a:0000000000000014
#04152:0000000000000014
#04752:0000000000000014
#0495a:0000000000000014
#000380:13
#0003b0:00000000330000330033330023000000
#001350:13
#001320:00000000330000330033330023000000
#0023b0:13
#002380:00000000330000330033330023000000
#003320:13
#003350:00000000330000330033330023000000
#0043b0:13
#005380:0000003333332300
#004321:13
#005351:0000003333332300
#010351:13
#010321:00332300000000000000000000000000
#011381:13
#0113b1:00332300000000000000000000000000
#012381:0013000000000000
#0123b1:00000033333300002300000000000000
#013351:0013000000000000
#013321:00000033333300002300000000000000
#014381:00000013000000000000000000000000
#0143b1:00000000002300000000000000000000
#014321:00000000000000130000000023000000
#014351:0000000000000000000000000000000033003353330033000000000000000000
#015351:00000013000000000000000000000000
#015321:00000000002300000000000000000000
#0153b1:00000000000000130000000023000000
#015381:0000000000000000000000000000000033003353330033000000000000000000
#016321:0013000000000000
#016351:00000033332300000000000000000000
#016321:0000000000130000
#016351:00000000000000000000003323000000
#0173b1:0013000000000000
#017381:00000033332300000000000000000000
#0173b1:0000000000130000
#017381:00000000000000000000003323000000
#017321:0000000000000013
#018351:0033000000230000
#018321:0000003300000000
#0183b1:0000000000000013
#019381:0033000000230000
#0193b1:0000003300000000
#019381:0000000000000013
#0203b1:0023000000000000
#019320:0000000000000013
#020350:0023000000000000
#020350:0000001300000000
#020320:0000000000230000
#0203b1:0000001300000000
#020381:0000000000230000
#021381:0000000000160026
#0233b1:00000013000000000000000000000000
#023381:00000000003323000000000000000000
#023321:0000000000160026
#025321:00000013000000000000000000000000
#025351:00000000003323000000000000000000
#025381:0000000000160026
#027321:00000013000000000000000000000000
#027351:00000000003323000000000000000000
#0273b0:00000013000000000000000000000000
#027380:00000000003323000000000000000000
#027320:0000000000160026
#028350:00000000000000000000000000001636
#029350:00360036003626000000000000000000
#030380:0000001300000033
#0303b0:0000000000330000
#0313b0:0023000000000000
#032350:0000001300000033
#032320:0000000000330000
#033320:0023000000000000
#034320:0000001300000033
#034350:0000000000330000
#035350:0023000000000000
#034381:0000001300000033
#0343b1:0000000000330000
#0353b1:0023000000000000
#0353a1:0000000000000014
#036361:0024000000000000
#036321:0000001400000000
#036361:0000000000240000
#0363a1:0000000000000014
#037361:0000002400000000
#0383a1:0000001400000034
#038361:0000000000340000
#039361:0024000000000000
#040321:0000001400000034
#040361:0000000000340000
#041361:0024000000000000
#0423a1:0000001400000034
#042371:0000000000340000
#043371:0024000000000000
#042350:0000001400000034
#042320:0000000000340000
#043320:0024000000000000
#043320:0000000000000014
#044360:0024000000000000
#0443a0:0000001400000000
#044360:0000000000240000
#044320:0000000000000014
#045360:0000002400000000
#046360:0000000000000014
#047360:0024000000000000
#048360:0000000000000014
#049360:0024000000000000
#0503a0:0000000000000014
#051360:0024000000000000
#051320:0000000000000014
#052360:0024000000000000
#0513a1:0000000000000014
#0523a1:0024000000000000
#0523a1:0000001400000000
#052361:0000000000240000
#052320:0000001400240000
#0523a0:0000000000000014
#053380:54
#0533a0:0024000000000000
#052321:0000000000000014
#053341:54
#053321:0024000000000000
#054381:0000000000000012
#055381:0022000000000000
#056361:0000000000000012
#057361:0022000000000000
#058381:0000000000000012
#059381:0022000000000000
#059341:0000000000000012
#060371:0022000000000000
#0603a1:0000001200000000
#060371:0000000000220000
#060361:0000000000000012
#061321:0000003232323222
