This file was generated by Ched 2.7.0.0.
#TITLE ""
#ARTIST ""
#DESIGNER ""
#DIFFICULTY 0
#PLAYLEVEL
#SONGID ""
#WAVE ""
#WAVEOFFSET 0
#JACKET ""
#REQUEST "ticks_per_beat 480"
#00002: 4
#BPM01: 116
#BPM02: 120
#00008: 01
#00408: 02
#TIL00: ""
#HISPEED 00
#MEASUREHS 00
#02112:0000000000261626
#02118:0000000000260000
#0211f:0000000000000021
#0221b:13000000000000000013001300000000
#02212:00130013000024001300000014000000
#02216:0014000000140000
#0221a:0000140000000024
#02210:0000004100000000
#02312:1300001300130026
#02318:13000013000000000013000013002600
#02315:00130000000000001300003300000000
#0231b:00130000001300000000130000000000
#02412:13000000130000000013000013000000
#0241b:00130000130000001300000013000000
#02416:00001414000024000000141400002400
#0251b:1300001300130000
#02515:13000013000000000013000013000000
#02518:00130000000000001300003300001300
#02512:00130000001300000000130000002600
#02613:13
#02612:00000013000000000000000000000000
#0261a:0000000013000014
#0261b:00000000000000000000001300000000
#02615:0000001300000000
#02616:00000000230000000023000000000000
#02617:00230000000000000000000023000000
#02718:00160000140000000000000000002600
#02712:13160000000000001400000014000000
#0271b:13
#02716:00000000000000000014000000000000
#02715:0000000000000013
#02714:00000000002428000000000000000000
#0281b:13130000000000000023000000000000
#02818:00000013130013000000000023000000
#02815:00000000230000000000001313000000
#02812:0023000000000000131300000000232c
#00016:12000000000012120000000000001200
#00012:00000000120000000012120000000000
#00014:00000012
#00018:12
#0001c:0012
#0011c:00000000120000000012120000000000
#00118:00000000000012120000000000001200
#0011a:00000012
#00116:12
#00112:0012
#00212:00000000120000000012120000000000
#00216:00000000000012120000000000001200
#00214:00000012
#00218:12
#0021c:0012
#0031c:00000000120000000012120000000000
#00318:00000000000012120000000000001200
#0031a:00000012
#00316:12
#00312:0012
#00418:12
#00518:0000000000000016
#00516:0000002424242400
#00510:0000000000000041
#00612:0016160000001600
#00618:13000013000000130000001300001600
#0061b:00001300001300001300130000000000
#01012:12120000000000000000000000000000
#01018:0012000000001200
#01014:0000120000000012
#01016:00000000000000121200000000000000
#0101c:00000000000000000012000000000000
#0101a:0000000000000012
#01112:00000000000000000012000000001200
#01118:00000000000000121200000000000012
#0111c:12120000000000000000000000000000
#01116:0012000000001200
#0111a:00120000
#01215:12
#0121b:00120000000000000000000000000000
#01213:0012000000000000
#01216:00000000120000121200120000000012
#01219:00000012000000000000000000000000
#0121c:00000000001200000000120000001200
#01210:0000000000000041
#01319:12
#01313:00120000000000000000000000000000
#0131b:0012000000000000
#01318:00000000120000121200120000000000
#01315:00000012000000000000000000000000
#01312:00000000001200000000120000001200
#0131f:0000000000000011
#01317:0000000000000022
#0141c:12120000000000000000120012001200
#01412:00001200000000120012000000000000
#01418:00000012000000000000000000000000
#01417:00000000001200001200001200001200
#01512:12120000000000000000120012000000
#0151c:00001200000000120012000000000000
#01516:00000012000000000000000000000000
#01517:00000000001200001200001200000000
#01519:00000000000000000000000000001212
#01615:12120000000000000000000000001212
#0161c:0012000000000000
#01612:00000012000000000000000000000000
#01618:00121200
#01616:00000000001200000012000000000000
#0161a:00000000000000120000000000000000
#01716:0000120012000013
#0171b:0000000000000013
#01719:12120000000000000000000000000000
#01712:0012000000000000
#0171c:00000012000000000000000000000000
#01718:00000000001200000012000000000000
#01714:00000000000000120000000000000000
#01812:0013000000130013
#0181b:0000001300000000
#01817:1300130000130000
#01819:0013000000000000
#01814:00001313
#01916:0013000013001300
#01917:0000001300000000
#0191b:0013000000130000
#01919:13130000
#01914:0000000000130000
#01912:0000000000000013
#0201b:1300130000130000
#02015:0000131300000000
#02018:0013
#02012:0000000013001313
#02017:0013000000001300
#02016:13
#03012:0013000000130000
#03016:00130013
#0301b:1313
#03017:0000001300000000
#03014:00000000000000000013000000000000
#03018:0000000000000013
#03015:0000000000000013
#02917:0000000000000013
#02912:002c002c002c2c001c00190016000000
#03112:13130000
#03118:0013000000000000
#0311b:0000001300130000
#03115:00001313
#03110:0000000000000041
#0321b:0013000000130000
#03217:00130013
#03212:1313
#03216:0000001300000000
#03219:00000000000000000013000000000000
#03215:0000000000000013
#03218:0000000000000013
#0331b:13130000
#03315:0013000000000000
#03312:0000001300130013
#03318:00001313
#03612:1600001600000016
#03618:00000000000026001600000000002633
#03615:00000000000000000000000000000033
#0381a:1414
#03816:00140000140014000014000014000000
#03812:0014000000140016
#0381b:00000000000000000000000000000013
#03818:0000000000000013
#04012:14000000000000001400000000000013
#04016:00140000140014000014000014000000
#0401a:0014000000140000
#04015:0000000000000013
#04018:0000000000000016
#03915:00130000001300001300000013002300
#03912:13000000130000000013000000130000
#0391b:00000013000013000000130000000000
#03918:00001300000000130000001300000000
#03910:0000000000000041
#04314:00000000000000001414000000000000
#04318:0000000000140016
#0431b:00000013
#04312:0014000000001326
#04316:1414141400000000
#0431a:14140000
#0441c:0012
#04412:0000001612000026
#04416:12
#04418:1200002600000000
#04216:1400141413141300
#04212:0014000000000014
#0421b:13130000
#0421a:00001414
#04219:00330000000000000000000000000000
#04214:00000000000000000033000000000000
#03416:13131313
#03412:0013000000130013
#03417:0013001300130000
#0341b:13131313
#0351b:13130013
#03517:0013001300000000
#03515:00000000000000001313000000000000
#03518:0000000000130016
#03512:0013000000001326
#03516:13130000
#05412:1212
#05414:0012001200120012
#05416:00120012
#0541c:0000121200000000
#0541a:0000000000120000
#05418:0000000000000012
#05512:1212
#05514:0012001200120000
#05516:00120012
#0551c:0000001200000000
#0551a:0000000012000012
#05518:0000000000121200
#05314:0000000000000012
#05312:1426142614261400
#05318:00001600001600000000001600000000
#0531a:00000014000000141400000000001400
#05316:00000000000000000014000000140000
#0561c:1212
#0561a:0012001200120012
#05618:00120012
#05612:0000121200000000
#05614:0000000000120000
#05616:0000000000000012
#0571c:1212
#0571a:0012001200120000
#05718:00120012
#05712:0000001200000000
#05714:0000120012000012
#05716:0000000000121200
#0581c:0000121200000000
#0581a:0000000000120000
#05818:0000000000000012
#05812:00120012
#05814:0012001200120012
#05816:1212
#0591c:0000001200000000
#0591a:0000120012000012
#05918:0000000000121200
#05914:0012001200120000
#05912:00120012
#05916:1212
#0601c:1212
#0601a:0012001200120012
#06018:00120012
#06012:0012000000120000
#06016:0000001200000000
#06014:0000000000000012
#0611c:1212
#0611a:0012000000000000
#06118:00120000
#06112:00120012
#06114:0012000000000000
#06116:12
#06117:0000000000120012
#04512:000000002c000014
#04515:0000000000290000
#04518:00000026
#04516:0000000000000024
#0461a:1400140014240000
#04612:00001414000000141400001400001400
#04616:00002400001424000000000014000000
#0471a:1400142414240014
#04712:00001414001400001400001400000000
#04716:00002400000000140000000014002400
#04710:0000000000000041
#04812:1400140014240000
#0481a:00001414000000141400001400001400
#04816:00002400001424000000000014000000
#04912:1400142414240014
#0491a:00001414001400001400001400000000
#04916:00002400000000140000000014002814
#0501a:14141414
#05012:00001614000000141400001400001400
#05016:00000000001424000014000000140014
#05018:0026000000260000
#0511a:1400140014001414
#05112:00001614001600001400001400002800
#05116:00000000000000140014000000000014
#05118:0026002600260000
#05212:1426140014261400
#05218:0016000000000000
#0521a:00000014000000141400001400001400
#05216:00000000001424000014000000140014
#03715:33331333333300000000000000000000
#03718:33331333333300000000000000000000
#03712:000000002c292600
#03716:0000000000000024
#00712:0016160000001616
#00718:13000013000000130000001300000000
#0071b:00001300001300001300130000000000
#00818:0016160000001600
#00815:13000013000000130000001300000000
#00812:00001300001300001300130000001600
#00918:0016160000001600
#00915:13000013000000130000001300000000
#00912:00001300001300001300130000000000
#00914:0000000000000022
#0091a:0000000000000022
#04118:00130000001300001300000013002300
#0411b:13000000130000000013000000130000
#04112:00000013000013000000130000001400
#04115:00001300000000130000001300000000
#02158:0000000000560046
#02152:0000000000002636
#0225a:00640000
#02252:00000054
#02355:00630000000000000000000000000000
#02358:0000000000000016
#02352:0000000000630016
#02452:00530000
#0245b:00000063
#02456:0000001400000014
#02558:00530000000000000000000000005300
#0255b:0000001300630000
#02552:0000000000130016
#02655:0000006300000000
#02659:0000001300000000
#02656:00000000530000000063000000000000
#02657:00530000000000000000000063000000
#02654:0000000000000013
#02754:0000001800000000
#02752:00560000000000000000000000000000
#02758:00560000000000000000000000001600
#02755:0000000000000063
#02952:0000001c00000000
#02957:0000000000000013
#02855:00630000
#02852:00530000000013000000000000000000
#02858:0000005300005300
#0285b:00000000000000000063000000000000
#00058:52
#0005c:0022
#00156:62
#00152:0022
#00258:52
#0025c:0022
#00356:62
#00352:0022
#00458:52
#00558:0000000000000016
#00954:0000000000000012
#0095a:0000000000000012
#01256:0000000000520000
#0125c:0000000000520000
#01252:00000012
#01258:00000012
#01352:0000000000620052
#01358:0000000000620000
#0135c:00000012
#01356:00000012
#01458:00000052000000000000000000000000
#01457:00000000003200000000000000000000
#0145c:0000000000000062
#01556:00000062000000000000000000000000
#01557:00000000004200000000000000000000
#01656:00000000005200000000000000000000
#0165c:00000012
#01652:00000012
#01756:0000000000000053
#01758:00000000006200000000000000000000
#01752:00000012
#0175c:00000012
#0185b:0000005300000000
#01852:0023000000130063
#01857:0000000000230000
#01957:0000006300000000
#01952:0000000000000053
#0195b:0000000000230000
#01956:0023000000000000
#01954:0000000000130000
#0205b:0000230000530043
#02055:0000005300000000
#02057:0053000000002300
#02052:0000000023000033
#02056:23
#03155:0013001363006300
#0315b:1300136300630000
#03152:5300530000130013
#03158:0053000013001300
#03058:0000000000000053
#03055:0000000000000013
#0335b:6300630000130013
#03355:0063000013001300
#03352:1300135300530063
#03358:0013001353005300
#03255:0000000000000063
#03258:0000000000000013
#03652:2600005600360066
#03658:0046000026000066
#03856:0000004400000000
#0385b:00000000000000000000000000000023
#03858:0000000000000063
#03852:0000000000000036
#04056:0000003400000000
#04052:00000000000000000000000000000023
#04055:0000000000000053
#04058:0000000000000046
#03955:00230000002300005300430053004300
#03952:63003300630033000023000000230000
#0395b:00000023000053004300530043000000
#03958:33006300330000230000002300000000
#0445c:0022
#04458:2216006600160000
#04452:0016006622160000
#04456:22
#04256:2400246423640000
#04252:0064000000000064
#0425b:23
#0425a:00002424
#04356:2400241400000000
#04352:0064000000000066
#04358:0000000000000056
#03457:0000006300630000
#0345b:00002323
#03456:23230000
#03452:0063000000000063
#05452:2222
#05456:00220022
#05454:0062006200620062
#05552:2222
#05554:0062006200620000
#05556:00220022
#0555a:0000000000000052
#05354:0000000000000062
#0535a:0000000064000014
#05356:00000000000000000024000000000000
#0565c:2222
#0565a:0052005200520052
#05658:00220022
#0575c:2222
#0575a:0052005200520000
#05758:00220022
#05754:0000000000000052
#0605c:2222
#0605a:0052005200520052
#06058:00220022
#06054:0000000000000052
#0615c:22
#0615a:0052000000000000
#06158:00220000
#06152:00220000
#06154:0052000000000000
#06156:22
#06157:0000000000000012
#0595a:0000000000000052
#05954:0052005200520000
#05952:00220022
#05956:2222
#05852:00220022
#05854:0052005200520052
#05856:2222
#04552:0000001600000054
#04558:0000001600000000
#04556:0000000000000044
#04652:0000000054000054
#04656:00000054
#0465a:0000000000000014
#04752:0054
#0475a:0000000000000064
#04756:0000000000000034
#0485a:0000000064000064
#04856:00000064
#04852:0000000000000014
#0495a:0064
#04952:0000000000000054
#04956:00000000000000000000000000004824
#05052:0000000054000054
#0505a:0000000000005444
#05056:00000000000000000024000000240024
#05152:0000000054000038
#05156:00000000000000000024000000000024
#0515a:0000000000000064
#0525a:0000000064000064
#05252:0000000000006434
#05256:00000000000000000024000000240024
#03558:0000000000000056
#03552:0063000000000000
#03556:23230000
#03557:0000001300000000
#03755:0023000000000000
#03758:0023004600000000
#03752:0000003600000000
#03756:0000000000000044
#00752:0000000000000016
#04158:00230000002300006300330063003300
#0415b:53004300530043000023000000230000
#04152:00000023000063003300630033006400
#04155:43005300430000230000002300000000
#000380:12
#0003c0:0052
#001380:22
#001361:12
#001321:0052
#002361:22
#002380:12
#0023c0:0052
#003380:22
#003361:12
#003321:0052
#004361:22
#004380:12
#0053c0:0000002200000000
#005320:0000000000000016
#006320:26
#006320:0000000016260000
#006320:0000000000000016
#007320:26
#007320:0000000016260000
#007380:0000000000000016
#008380:26
#008380:0000000016260000
#008380:0000000000000016
#009380:26
#009380:0000000016260000
#0103a0:00000000001200220000000000000000
#010320:0000000000120000
#010340:00000000000000000000003200000000
#010360:00000022
#011340:00000000001200220000000000000000
#0113c0:0000000000120000
#0113a0:00000000000000000000003200000000
#011380:00000022
#0123c0:00000000000000000012320000000000
#012380:00000022
#012361:0000000000120000
#012321:00000022
#013321:00000000000000000012320000000000
#013361:00000022
#013380:0000000000120000
#0133c0:00000022
#013320:0000000000000012
#014360:22
#014380:00000012000000000000000000000000
#0143c0:00000000002200000000000000000000
#0143c0:0000000000000012
#015380:22
#015360:00000012000000000000000000000000
#015320:00000000002200000000000000000000
#016360:00000000001200000000000000000000
#016320:00000000000000220000000000000000
#0163c0:0000000000122200
#016321:00000000000000000000001222000000
#017381:00000000001200000000000000000000
#0173c1:00000000000000220000000000000000
#017321:0000000000122200
#0173c0:00000000000000000000001222000000
#017360:0000000000000013
#018320:0033000000000000
#018360:0000002300000000
#0183b1:0000001300000023
#018371:0000000000330000
#018320:0000000000000013
#019360:0033000000000000
#019320:0000002300000000
#019371:0000001300000023
#0193b1:0000000000330000
#019320:0000000000000013
#020360:53
#020320:0023000000000000
#020371:0013000000000000
#0203b1:00530000
#020381:0000002300000000
#020350:0000001300000000
#020320:0053
#020360:0000000000230000
#0203b1:0000000000130023
#020371:00000053
#021381:0000000000160026
#021321:00000056
#0223a1:00140000
#022361:0000002400000000
#022321:00000014
#022361:0000000000000024
#023351:00130000000000000000000000000000
#023321:00000023000000000000000000000000
#023381:0000001323000000
#023321:0000000000130000
#023351:00000000000000000000003323000000
#024321:00130000
#024361:0000002400000000
#0243b1:00000013
#024361:0000000000000024
#025381:00130000000000000000000000000000
#0253b1:00000023000000000000000000000000
#025351:0000001323000000
#0253b1:0000000000130000
#025381:00000000000000000000003323000000
#025381:0000000000000013
#0263b1:23
#026371:00130000000000000000000000000000
#0263a1:00000023000000000000000000000000
#026361:00130000
#026391:0000002300000000
#026350:0000001300000000
#026320:0023
#026360:00000000000000000013000000000000
#026330:00000000000000000000002300000000
#026370:00000013
#026340:0000000000000023
#027320:00160000000000000000000000000000
#027360:00000022000000000000000000000000
#027381:00160022000000000000000000000000
#0273a1:0000000000140000
#027361:00000024
#027351:0000000000000013
#028321:23
#028321:00130000000000000000000000000000
#028351:00000023000000000000000000000000
#028351:00130000
#028321:0000002300000000
#028380:0000001300000000
#0283b0:0023
#0283b0:00000000000000000013000000000000
#028380:00000000000000000000002300000000
#028380:00000013
#0283b0:0000000000000023
#029320:0000000000000013
#030360:23
#030370:0013000000000000
#0303b0:00230000
#030320:0000001300000000
#030360:0023
#030370:0000000000130000
#0303b0:00000023
#030380:0000000000000013
#0313b0:23
#031321:13
#031351:0023000000000000
#031380:0013000000000000
#0313b0:00230000
#031321:00130000
#031351:0000002300000000
#0313b0:0000001300000000
#031380:0023
#031351:0013
#031321:0000000000230000
#0313b0:0000000000130000
#031380:00000023
#031351:00000013
#031321:0000000000000023
#0313b0:0000000000000013
#032370:23
#032360:0013000000000000
#032320:00230000
#0323b0:0000001300000000
#032370:0023
#032360:0000000000130000
#032320:00000023
#032350:0000000000000013
#033320:23
#0333b1:13
#033381:0023000000000000
#033350:0013000000000000
#033320:00230000
#0333b1:00130000
#033381:0000002300000000
#033320:0000001300000000
#033350:0023
#033381:0013
#0333b1:0000000000230000
#033320:0000000000130000
#033350:00000023
#033381:00000013
#0333b1:0000000000000023
#033320:0000000000000013
#034360:53530000
#034320:0033002300000000
#034371:0000001300330023
#0343b1:00005353
#034320:0000000000000013
#035360:53530000
#035320:0033002300000000
#035320:0000000000000016
#036320:0026000000000000
#035381:0000000000000016
#036321:56
#036381:0026000000000000
#036381:0000001600260000
#036320:0000001600260000
#036380:0056
#036380:0000000000000016
#036350:00000000000000000000000000000033
#037350:33333300000000000000000000000000
#037380:00000033333326000000000000000000
#036321:0000000000000016
#036381:00000000000000000000000000000033
#037381:33333300000000000000000000000000
#037351:00000033333300000000000000000000
#037321:0000002600000000
#037321:0000000000000014
#038361:24
#038361:0014000000000000
#0383a1:00240000
#038321:0000001400000000
#038361:0024
#038361:0000000000140000
#0383a1:00000024
#038381:0000000000000013
#0383b1:00000000000000000000000000000053
#039381:23
#039320:1323000000000000
#039350:00530000000000000000000000000000
#039381:0013230000000000
#0393b1:00000053000000000000000000000000
#039320:0000132300000000
#039350:00000000005300000000000000000000
#0393b1:0000001323000000
#039381:00000000000000530000000000000000
#039350:0000000013230000
#039320:00000000000000000053000000000000
#0393b1:0000000000132300
#039381:00000000000000000000005300000000
#039350:0000000000001323
#039320:00000000000000000000000000530000
#0393a1:0000000000000014
#040361:24
#040361:0014000000000000
#040321:00240000
#0403a1:0000001400000000
#040361:0024
#040361:0000000000140000
#040321:00000024
#040351:0000000000000013
#040321:00000000000000000000000000000053
#041351:23
#0413b0:1323000000000000
#041380:00530000000000000000000000000000
#041351:0013230000000000
#041321:00000053000000000000000000000000
#0413b0:0000132300000000
#041380:00000000005300000000000000000000
#041321:0000001323000000
#041351:00000000000000530000000000000000
#041380:0000000013230000
#0413b0:00000000000000000053000000000000
#041321:0000000000132300
#041351:00000000000000000000005300000000
#041380:0000000000001323
#0413b0:00000000000000000000000000530000
#041321:0000000000000014
#042361:54540000
#042321:0034002400000000
#0423b0:13
#042390:00330000000000000000000000000000
#042370:0023000000000000
#042360:0000001400340024
#0423a0:00005454
#042361:0013
#042341:00000000000000000033000000000000
#042321:0000000000230000
#042321:0000000000000014
#043361:54540000
#043321:0034002400000000
#043321:0000000000000016
#044361:52
#044321:0026000000000000
#043380:0000000000000016
#044380:5226000000000000
#044320:0000001652260000
#044381:0000001600260000
#0443c1:0052
#044381:0000000000000000000000000000000000000000000000000000000016523452
#045381:34005200340052003456345634563456345634563456340026000000000000000000000000000000000000000000000000000000000000000000000000000000
#044320:0000000000000016
#044360:0000000000000000000000000000000000000000000000000000000000520052
#044340:00000000000000000000000000000034
#045340:3400340034343434343434340000000000000000000000000000000000000000
#045360:0052005200000000000000000000000000000000000000000000000000000000
#045320:00000000000000000056005600560056005600560056000026000000000000000000000000000000000000000000000000000000000000000000000000000000
#045320:0000000000000014
#046360:24
#046320:0014
#046360:0000000000240000
#046360:00000014
#0463a0:0000000000000024
#046321:0000000000000014
#047361:24
#047321:0014
#047361:0000000000240000
#0473a1:0000000000000014
#048361:24
#0483a1:0014
#048361:0000000000240000
#048361:00000014
#048321:0000000000000024
#0483a0:0000000000000014
#049360:24
#0493a0:0014
#049360:0000000000240000
#049320:0000000000000014
#049360:00000000000000000000000000000054
#050320:24
#050320:0000000014240000
#050360:00000000000000000054000000000000
#0503a0:0000000000001424
#050360:00000000000000000000000000540000
#050321:0000000000000014
#050361:00000000000000000000000000000054
#051321:24
#051321:0000000014240000
#051361:00000000000000000054000000000000
#0513a1:0000000000000014
#051361:00000000000000000000000000000054
#0523a1:24
#0523a1:0000000014240000
#052361:00000000000000000054000000000000
#052321:0000000000001424
#052361:00000000000000000000000000540000
#0523a0:0000000000000014
#052360:00000000000000000000000000000054
#0533a0:24
#0533a0:0000000014240000
#053360:00000000000000000054000000000000
#053340:0000000000000012
#054320:5252
#054340:0052005200520052
#054360:00520052
#055320:5252
#055340:0052005200520022
#055360:00520052
#0553a1:0000000000000012
#0563c1:5252
#0563a1:0052005200520052
#056381:00520052
#0573c1:5252
#0573a1:0052005200520022
#057381:00520052
#057340:0000000000000012
#058360:5252
#058340:0052005200520052
#058320:00520052
#059360:5252
#059340:0052005200520022
#059320:00520052
#0593a1:0000000000000012
#0603c1:5252
#0603a1:0052005200520052
#060381:00520052
#0613c1:52
#0613a1:0052002200000000
#061381:00520000
#060340:0000000000000012
#061360:52
#061340:0052002200000000
#061320:00520000
