This file was generated by Ched 2.7.0.0.
#TITLE ""
#ARTIST ""
#DESIGNER ""
#DIFFICULTY 0
#PLAYLEVEL
#SONGID ""
#WAVE ""
#WAVEOFFSET 0
#JACKET ""
#REQUEST "ticks_per_beat 480"
#00002: 4
#BPM01: 116
#BPM02: 120
#00008: 01
#00408: 02
#TIL00: ""
#HISPEED 00
#MEASUREHS 00
#00418:14
#00614:0014000000000000
#00618:0000001400000000
#00612:0000000000140000
#0061a:0000000000000014
#00714:0014000000000000
#00718:0000001400000014
#00712:0000000000140000
#00812:0014000000000000
#0081a:0000001400000000
#00814:0000000000140000
#00818:0000000000000014
#00912:0014000000000000
#0091a:0000001400000014
#00914:0000000000140000
#01014:14
#0101a:0014000000000014
#01012:0000001400140000
#01018:0014
#01114:14
#0111a:0014000000000014
#01112:0000001400140000
#01118:0014
#01214:0000000000000014
#01210:0000000000000041
#01318:0000000000000014
#0131f:0000000000000011
#01412:14
#01418:0014000000000014
#01414:0000001400140000
#0141a:0014
#01512:14
#01518:0014000000000014
#01514:0000001400140000
#0151a:0014
#01612:0000000000000014
#0171a:0000000000000014
#01818:0000001400000000
#01812:0000000000000014
#01914:0000001400000000
#01918:0000000000000014
#0201a:0000001400000000
#02218:0014000000000000
#02212:0000001400000000
#0221a:0000000000140000
#02214:0000000000000014
#02210:0000004100000000
#02318:0014000000240000
#02312:0000001400000000
#02414:0014000000000000
#0241a:0000001400000000
#02412:0000000000140000
#02418:0000000000000014
#02514:0014000000000000
#0251a:0000001400000000
#02512:0000000000240000
#02618:0014000000000000
#02614:0000001400000000
#0261a:0000000000140000
#02612:0000000000000014
#02718:0014000000000000
#02714:0000001400000000
#0271a:0000000000240000
#02814:0014000000000000
#02818:0000001400000026
#02812:0000000000140000
#02912:0000000000000014
#03018:0014000014000000
#03014:0000001400140000
#0301a:0000000000000014
#03114:0014000014000014
#03118:0000001400140000
#03110:0000000000000041
#0321a:0014000000000000
#03212:0000001400140000
#03218:0000000014000014
#03312:0014000000000014
#0331a:0000001400140000
#03314:0014
#03418:0014000000000000
#0341a:0000000000000014
#03412:0034
#03514:0014000000000000
#03512:0000000000000024
#0351a:0034
#0371a:0000000000000014
#03814:0014000014000000
#03818:0000001400140000
#03812:0000000000000014
#03918:0014000014000014
#03914:0000001400140000
#03910:0000000000000041
#04012:0014000000000000
#0401a:0000001400140000
#04014:0000000014000014
#0411a:0014000000000014
#04112:0000001400140000
#04118:0014
#04214:0014000000000000
#04212:0000000000000014
#0421a:0034
#04318:0014000000000000
#0431a:0000000000000024
#04312:0034
#04512:0000000000000014
#04618:0014000014000000
#04614:0000001400140000
#0461a:0000000000000014
#04714:0014000014000014
#04718:0000001400140000
#04710:0000000000000041
#0481a:0014000000000000
#04812:0000001400140000
#04818:0000000014000014
#04912:0014000000000014
#0491a:0000001400140000
#04914:0014
#05018:0014000000000000
#0501a:0000000000000014
#05012:0034
#05114:0014000000000000
#05112:0000000000000024
#0511a:0034
#0541a:0000000000000014
#05418:0000001400000000
#0531a:0000000000000014
#05612:0000000000000014
#05614:0000001400000000
#05512:0000000000000014
#05818:0000000000000014
#0581a:0000001400000000
#05718:0000000000000014
#06014:0000000000340014
#06012:0034001400000000
#05914:0000000000000014
#02114:0000000000240000
#0211f:0000000000000021
#0361a:0000002400000000
#03614:0000000000000024
#04412:0000002400000000
#04418:0000000000000024
#0521a:0000002400000000
#05214:0000000000000024
#06112:0034000000000000
#00510:0000000000000041
#00458:54
#0115a:0000000000000054
#01254:0000000000000054
#01258:0000000000140000
#01352:0000000000140000
#01558:0000000000000064
#0165a:0000000000140000
#01652:0000000000000064
#01754:0000000000140000
#0175a:0000000000000054
#01858:0000005400000000
#01852:0000000000000064
#01954:0000006400000000
#01958:0000000000000064
#0205a:0000006400000000
#02058:0000000000000014
#02154:0000000000000014
#02358:0000000000000014
#02552:0000000000000014
#0275a:0000000000000014
#03552:0000000000000054
#0365a:0000005400000000
#03654:0000000000000054
#0435a:0000000000000064
#04452:0000006400000000
#04458:0000000000000064
#0375a:0000000000000014
#03852:0000000000000014
#03958:0000000000000014
#04054:0000000000000014
#0415a:0000000000000014
#04252:0000000000000014
#04552:0000000000000014
#0465a:0000000000000014
#04754:0000000000000014
#04858:0000000000000014
#04952:0000000000000014
#0505a:0000000000000014
#05152:0000000000000054
#0525a:0000005400000000
#05254:0000000000000054
#0535a:0000000000000054
#05458:0000005400000000
#0545a:0000000000000054
#05652:0000000000000064
#05654:0000006400000000
#05552:0000000000000064
#05858:0000000000000064
#0585a:0000006400000000
#05758:0000000000000064
#06054:0000000000000054
#06052:0000005400000000
#05954:0000000000000054
#0003a0:14000024
#001340:14000024
#002380:14000024
#003320:14000024
#004380:14
#0053a0:0000003434343424
#0113a0:0000000000000014
#012380:0034003400240000
#012340:0000000000000014
#013320:0034003400240000
#015380:0000000000000014
#0163a0:0034003400240000
#016320:0000000000000014
#017340:0034003400240000
#0173a0:0000000000000014
#018380:0034003400000000
#0183a0:0000000000240000
#018320:0000000000000014
#019340:0034003400000000
#019320:0000000000240000
#019380:0000000000000014
#0203a0:0034003400000000
#020380:0000000000340024
#021340:0000000000140024
#023380:0000000000140024
#025320:0000000000140024
#0273a0:0000000000140024
#028380:00000000000000000000000000001636
#029380:00360036003626000000000000000000
#034340:0000001400000000
#034320:0000000034240000
#035380:0000001400000000
#0353a0:0000000034240000
#035320:0000000000000014
#036340:0024000000000000
#0363a0:0000001400000000
#036380:0000000000240000
#036340:0000000000000014
#037320:0000002400000000
#042380:0000001400000000
#0423a0:0000000034240000
#043340:0000001400000000
#043320:0000000034240000
#0433a0:0000000000000014
#044380:0024000000000000
#044320:0000001400000000
#044340:0000000000240000
#044380:0000000000000014
#0453a0:0000002400000000
#050340:0000001400000000
#050320:0000000034240000
#051380:0000001400000000
#0513a0:0000000034240000
#051320:0000000000000014
#052340:0024000000000000
#0523a0:0000001400000000
#052380:0000000000240000
#052340:0000000000000014
#053320:0000002400000000
#0533a0:0000000000000014
#054380:0000003400000000
#0543a0:0000000000000034
#055380:0000002400000000
#055320:0000000000000014
#056340:0000003400000000
#056320:0000000000000034
#057340:0000002400000000
#057380:0000000000000014
#0583a0:0000003400000000
#058380:0000000000000034
#0593a0:0000002400000000
#059340:0000000000000014
#060320:0034003400000000
#060340:0000000000340034
#061320:0034003434343424
