This file was generated by Ched 2.7.0.0.
#TITLE ""
#ARTIST ""
#DESIGNER ""
#DIFFICULTY 0
#PLAYLEVEL
#SONGID ""
#WAVE ""
#WAVEOFFSET 0
#JACKET ""
#REQUEST "ticks_per_beat 480"
#00002: 4
#BPM01: 130
#00008: 01
#TIL00: ""
#HISPEED 00
#MEASUREHS 00
#0011a:14
#00214:14
#00318:14
#00412:14
#0051a:14
#00614:14
#00718:14
#00812:14
#0171a:14
#01710:41
#01814:14
#02112:14
#02218:14
#0251a:14
#02510:41
#02614:14
#02718:14
#02812:14
#0291a:14
#03014:14
#03118:14
#03212:14
#03210:41
#03317:1616
#03318:00160000
#03316:00000016
#0331f:11
#03513:1616
#03512:00160000
#03514:00000016
#03718:14
#03714:0014
#03818:14
#03814:0014
#03918:14
#04112:0016
#04118:26
#0411f:21
#04218:16
#04212:0016
#04210:41
#04518:1616
#04612:1616
#04718:1616
#04712:00160016
#04918:0016
#04912:26
#05012:16
#05018:0016
#05312:1616
#05418:1616
#05512:1616
#05518:00160016
#05510:41
#06612:26
#00910:41
#03357:5656
#03358:00260000
#03356:00000026
#03553:6666
#03552:00260000
#03554:00000026
#0093a0:14343434
#0103a0:24
#011340:14343434
#012340:24
#013380:14343434
#014380:24
#015320:14343434
#016320:24
#0193a0:14
#0203a0:24
#023320:14
#024320:24
#033370:1656
#033380:00560000
#033360:00000056
#034370:26
#035330:1656
#035320:00560000
#035340:00000056
#036330:26
#040340:1424
#043380:1626
#044320:1626
#048380:1626
#051320:1626
#052380:1626
#056320:1626
#057380:1626
#058320:14343434
#059320:24
#060380:14343434
#061380:24
#062340:14343434
#063340:24
#0643a0:14343434
#0653a0:24
