This file was generated by Ched 2.7.0.0.
#TITLE ""
#ARTIST ""
#DESIGNER ""
#DIFFICULTY 0
#PLAYLEVEL
#SONGID ""
#WAVE ""
#WAVEOFFSET 0
#JACKET ""
#REQUEST "ticks_per_beat 480"
#00002: 4
#BPM01: 130
#00008: 01
#TIL00: ""
#HISPEED 00
#MEASUREHS 00
#00012:00000013
#00015:0000000000000013
#00118:13000013
#00115:0000000000130000
#0011b:0013000000000013
#00112:1313
#00119:00130000
#00117:0000001300000000
#00218:0000000000130000
#00215:13000013
#00212:0013000000000013
#00214:00130000
#00216:0000001300000000
#0021b:1313
#0031b:0013000023000013
#00317:00000000130000000000001300000000
#00312:00000000130000000000002300000000
#00316:0000000013000013
#00412:0013000000130000
#00415:00000013
#00418:0000000000000013
#00417:0013000000000000
#00517:00000013000000130000000000000000
#0051b:13000000001300000000130000000000
#00516:00000000001300000000000000000000
#00512:00000000000000130000000000000000
#00518:00000013
#00515:0000000000000013
#00618:00000000001300130000000000001300
#00615:0000001300001300
#00612:1300000000130000
#00616:00000013000000000000000000000000
#0071b:13000000000013001300001300001300
#00718:00130000
#00712:1300001313000000
#00818:0000000000000013
#00815:00000000000000000000000000000013
#00918:13333313
#00915:0000000000130013
#0091b:00000000001300000000000000001300
#00910:41
#0101b:0013000000000000
#01012:0013000000130013
#01019:00000013
#01017:0000000000000013
#01018:0000001300000000
#01112:0013000000131300
#01116:0000131300000000
#0111b:00000000001300130000000000000013
#01114:0000000013000013
#01119:00000000000000000013000000130000
#01117:00000000000000000000001300000000
#01712:0013000000000000
#01719:00000013000000000000130000000000
#01714:00000000130000000000001300000000
#0171b:13000000001300001300000000130013
#01716:00000000000000000013000000001300
#01710:41
#01816:13000000130000000000001300000000
#01817:00001300000013130000000000000000
#0181b:00000000130000000000001300000000
#01819:00000000000000000013000000000000
#01815:00000000000000000000000000130013
#01818:0000000000000013
#01812:0013000000000000
#01814:00000000000000000013000000000000
#01917:00000013000000000000000000000000
#01912:0013000013000000
#01918:00000000001300130000000000001300
#01915:00000000000013000000000000000013
#01916:00000000000000000000001300000000
#0191b:1300000000130000
#02017:00001300000000130000000000000000
#0201b:13000000130000000000001300000000
#02019:00000000000000000013000000000000
#02012:0013001300000013
#02018:00000000000000000000000000000013
#02016:00000000130000000000001300000000
#02014:00000000000000000013000000000000
#02115:1313001300000000
#0211b:00130000000000130000002300130000
#02118:00000013001300000000000000000013
#02112:00000000130000000033330000130000
#02212:13130000
#02218:00130000001300000013001300000013
#02215:0013001313130013
#0221b:00000013000000130000000000130000
#02312:13000000000000000000130000000013
#0231b:00001300000000130000000000000000
#02317:00133300
#02316:0013001300000000
#02318:0000000000000013
#02315:00000000000000000000000000130000
#0241b:00001300000000000000000000130000
#02419:00130000
#02417:00000000000013130000000000000000
#02416:0000000000130000
#02412:00000000000013130000000000001300
#02418:00000000000000000000000000000013
#02414:00130000
#02515:13000000000000000000000000000013
#0251b:00001300000013000013000000001300
#02517:00000000130000000000001300000000
#02516:00001300000000130013000000000000
#02512:00000000130000000000001300000000
#02510:41
#02618:13000000001300000000000000001300
#02615:00001300000013000000000000000013
#02612:0000130000130000
#0261b:00001300000000130000000000000000
#0271b:13131300
#02716:0014001400000000
#02712:13000000130000001300001300000013
#02715:00000000000000000000000000130000
#02718:0000000000000013
#02717:0000000000330000
#0281b:00130000000000130000000000000000
#02815:0013001300000000
#02818:00000013001300000000000000000000
#02812:00000000130000000013000000000000
#02817:00000000000000000013000000000000
#02912:13000000000000001300000000000023
#02917:00130000000000000000000000000000
#02914:0013000000000000
#02919:00000013000000000000000000000000
#02916:00130000
#0291b:00000000001300000000001300000000
#02918:00000000000000130000130000001300
#02915:00000000000000000013000000130000
#0301b:13000000130000000033330000000000
#03015:00130000001300000000000000000000
#03018:0013001300000000
#03012:00000023000000230000001300130000
#03017:0000000000000013
#03014:00000000000000000000000000000013
#03116:0013001300000000
#0311b:00000013001300000000000000130000
#03115:0000000000000013
#03118:00000000000000000000000000000013
#03119:13000000000000130000000000000000
#03117:0000000000130000
#03112:00000000000000000000001300000000
#03114:0013
#03212:13000000130000130013000000000000
#03215:0013001300000000
#03218:00000013001300000000000000000000
#0321b:00130000000000130013000000000000
#03219:00000000000000000000000013130000
#03214:00000000000000000000000023230000
#03210:41
#03317:13130000
#03312:13001313
#03318:00000000000000000000000000130000
#03315:0000000000000013
#0331b:00001300000013000000000000000013
#0331f:11
#03416:0013000000000000
#03414:00000000130000000000000013130000
#03412:0000001313000000
#03419:00000000000000000000000023230000
#03517:0000000000130000
#03515:00000013
#03518:00000000000000000000000000130000
#0351b:13000000000000001300000000000013
#03516:13130000
#03512:00001300000013000000130000000013
#0361b:00131313
#03618:0000001300000013
#03615:00000000000000000000000000130000
#03612:00000000000000000000000000000013
#0371b:00001300000000002300000000000013
#03712:00130013
#03714:0000001300000000
#03716:0013
#03718:00000000000000000000000000130000
#03715:0000000000000013
#03717:00230000
#03719:0000002300000000
#03818:0000000000001313
#03815:00000000000000000000000000130000
#03812:0013000023000000
#0381b:00130000
#03819:0000001300000000
#03817:0013
#03816:00230000
#03814:0000002300000000
#0391b:130000000000000000130000000013000000000000000000
#03915:000000130000000000000000000013000000000000000000
#03918:00000023000000001300000000000000
#0391a:00000014
#03916:000000000014
#03912:130000000000000000130000130000000000000000001400
#0401b:13
#04015:00130013
#04018:0000130000000013
#04012:13
#0411b:2300001300130000
#04118:00000013
#04115:1300000000000013
#04112:0013000000000000
#04114:00130000
#04116:0000001300000000
#04119:00130000
#0411f:21
#04215:0000000000130000
#04218:13000013
#0421b:0013000000000013
#04216:0000000000000013
#04219:00130000
#04217:0000001300000000
#04214:00130000
#04212:2300001300000000
#04210:41
#04312:0013000023000023
#04316:00000000130000000000001300000000
#04317:00130000000000001300000000001300
#0431b:00000000000000000000002300000000
#04416:0013130000000000
#04412:0000000000130000
#04415:00000013
#04418:0000000000000013
#0441b:00130000
#0451b:1300000000130000
#04518:0013000000001300
#04515:00000013000000000000000000001300
#04512:13000000001300130000000000000000
#04612:13
#04618:00130000000000000000130000001300
#04615:0013000000001300
#0461b:00000013001300130000000000000000
#0471b:1300000013000013
#04718:0013001300001300
#04715:0000130000130000
#04716:0000000000000013
#04712:1313
#0481b:0013000013000000
#04819:00130000
#04817:0000001300000000
#04812:1300001300130000
#04818:00000013
#04815:00000000000000000000000000130000
#04814:00130000
#05215:0000000000000013
#05216:0024002400242400
#05212:0023000000230000
#0521b:0000002300002300
#05318:1300000000000013
#05316:00000013000000130000000000000000
#05312:00000000001300000000130000000000
#0531b:00000000000000130000000013000000
#05317:00000000001300000000000000000000
#05415:1300000000000013
#0541b:00000000001300000000130000000000
#05418:00000013
#05417:00000013000000130000000000000000
#05416:00000000001300000000000000000000
#05412:00000000000000130000000000000000
#0551b:1300000013130000
#05518:00130000
#05512:13000033130000330000000000001300
#05516:0013001300130000
#05517:0000000000000013
#05510:41
#05616:0013000000000000
#05619:00130000
#05617:0000001300000000
#0561b:0000000000130000
#05615:00000013
#05618:00000000000000000000000000130000
#05614:00130000
#05612:0000001300130000
#05714:1200000000000012
#05718:0012000000120012
#05716:00120012
#0571a:0000001200001200
#05713:0000000000120000
#0581b:12
#05818:0000000000130013
#05815:00000013
#05816:12
#05812:0000000000000013
#06216:00000000001300000000000013001300
#06212:13333300
#0621b:0000000000130013
#0151b:0013000000131300
#01517:0000131300000000
#01512:00000000001300130000000000000013
#01519:0000000013000013
#01514:00000000000000000013000000130000
#01516:00000000000000000000001300000000
#0161b:00001313
#01612:00000000000000000013000000130000
#01618:0000000000130013
#01615:00000000000000000000001300000013
#05018:0000000000130000
#05015:13000013
#05012:0013000000000013
#05017:0000000000000013
#05014:00130000
#05016:0000001300000000
#05019:00130000
#0501b:2300001300000000
#0511b:0013000023000023
#05117:00000000130000000000001300000000
#05116:00130000000000001300000000002400
#05112:00000000000000000000002300000000
#05912:0013000000000000
#0591b:0013000000130013
#05914:00000013
#05916:0000000000000013
#05915:0000001300000000
#0601b:0013000000131300
#06017:0000131300000000
#06012:00000000001300130000000000000013
#06019:0000000013000013
#06014:00000000000000000013000000130000
#06016:00000000000000000000001300000000
#06117:13000000000000000013001300000000
#06112:00000000131300000000130013000000
#0611b:00001300000000130000000000130013
#06116:00000000000000130000000000001300
#06312:0013000000000013
#06317:0013000000130013
#06316:0000001300001300
#0631b:00000013
#06412:0013000000131300
#06416:0000131300000000
#0641b:00000000001300130000000000000013
#06414:0000000013000013
#06419:00000000000000000013000000130000
#06417:00000000000000000000001300000000
#06512:00001313
#0651b:00000000000000000013000000130000
#06515:0000000000130013
#06518:00000000000000000000001300000013
#04912:2300001300130000
#04915:00000013
#04918:1300000000000013
#0491b:0013000000000000
#04919:00130000
#04917:0000001300000000
#04914:00130000
#01317:00000000001300000000000013001300
#0131b:13333300
#01312:0000000000130013
#01216:13000000000000000013001300000000
#0121b:00000000131300000000130013000000
#01212:00001300000000130000000000130013
#01217:00000000000000130000000000001300
#0141b:0013000000000013
#01416:0013000000130013
#01417:0000001300001300
#01412:00000013
#06612:23
#00158:53
#00159:00530000
#0015b:0023000000000000
#00157:0000002300000000
#00152:13
#00255:63
#00252:0023000000000053
#00254:00630000
#00256:0000002300000000
#0025b:13
#0035b:0000000000000053
#00356:0000000000000013
#00457:0053000000000000
#00452:0053000000000000
#00752:5300000000000013
#0075b:0000000000000013
#00958:53
#0095b:00000000002300000000000000000000
#00955:0000000000000053
#01052:0023000000000000
#0105b:0023000000000000
#01058:0000005300000000
#01852:0053000000000000
#01856:53530000
#02352:53000000000000000000000000000053
#02356:0023000000000000
#02357:00000000000000000000001300000000
#0235b:00000000000000530000000000000000
#0245b:0000000000130000
#02457:00000000000000530000000000000000
#02556:00000000000000130000000000000000
#0255b:00000000000000000013000000000000
#02552:00000000000000000000001300000000
#02658:63
#0265b:00006300000000630000000000000000
#02657:0000000000130000
#0275b:0053
#02752:00000000000000000000000000000013
#02852:00000000000000000053000000000000
#02857:00000000000000000053000000000000
#03357:53530000
#0335b:00002300000023000000000000000023
#03556:63630000
#03552:00002300000023000000000000000053
#0355b:00000000000000000000000000000053
#0365b:0013
#03652:00000000000000001300000000000053
#0375b:00000000000000000000000000000063
#0405b:53
#04058:00230000
#04052:63
#04055:00230000
#04155:63
#04152:0023000000000000
#04154:00630000
#04156:0000002300000000
#0415b:1300002300000000
#04159:00530000
#0425b:0023000000000053
#04258:53
#04259:00530000
#04257:0000002300000000
#04254:00630000
#04252:1300002300000000
#04357:00230000000000000000000000005300
#04456:00530000
#0445b:00530000
#04756:0000000000000053
#04852:23
#04857:0000005300000000
#0485b:0023
#05052:0023000000000063
#05055:63
#05054:00630000
#05056:0000002300000000
#05059:00530000
#0505b:1300002300000000
#05156:00230000000000000000000000000000
#0515b:0000000000000013
#05252:0013000000000000
#0525b:0000001300000000
#05552:53530000
#05556:0023002300000000
#05557:0000000000000053
#0585b:52
#05856:52
#05858:0000000000000063
#05952:0023000000000000
#0595b:0023000000000000
#05955:0000006300000000
#06157:63
#0615b:0023000000000000
#06156:00000000000000630000000000000000
#06252:63
#06256:00000000002300000000000000000000
#0625b:0000000000000063
#06352:0063000000000000
#06357:0063000000000000
#06356:0000006300000000
#04958:53
#0495b:0023000000000000
#04959:00530000
#04957:0000002300000000
#04954:00630000
#04952:1300002300000000
#0195b:13
#01952:0013
#03159:13
#03154:0013
#0575a:0000001200000000
#00552:00000000000000130000000000000000
#00658:00000000000000130000000000000000
#0535b:00000000000000130000000000000000
#05452:00000000000000130000000000000000
#04552:00000000000000130000000000000000
#0465b:00000000000000130000000000000000
#01256:53
#01252:0023000000000000
#01257:00000000000000530000000000000000
#0135b:53
#01357:00000000002300000000000000000000
#01352:0000000000000053
#0145b:0053000000000000
#01456:0053000000000000
#01457:0000005300000000
#001380:13
#0013b0:0053000000000000
#001390:00530000
#001370:0000005300000000
#0013a0:0023
#002350:13
#002320:0053000000000000
#002340:00530000
#002360:0000005300000000
#002330:0023
#002320:0000000000000013
#003360:0023000000000000
#0033b0:0000000000000013
#004370:0033000000000000
#0043b0:0023
#004321:0013000000000000
#004361:0023
#005321:00001323000000000000000000000000
#0063b1:00001323000000000000000000000000
#007321:13
#007351:00230000
#007321:00000000000000000000001300002300
#009381:1300330033230000
#0093b1:00000000005300000000000000000000
#009351:0000000000000013
#010321:0053000000000000
#010351:0000002300000000
#0103b0:0013000000230000
#010380:0000003300000000
#0113b0:0013230000000000
#012360:13230000
#012320:0053000000000000
#012370:00000000000000130000000000000000
#0123b0:00000000000000000023000000000000
#0133b0:1300330033230000
#013370:00000000005300000000000000000000
#013320:0000000000000013
#014360:0033000000000000
#014320:0000002300000000
#0143b1:0013000000230000
#014371:0000003300000000
#015321:0013230000000000
#016371:13230000
#016391:00330033000000000000000000000000
#0163b1:0033000000000000
#016320:00132300
#016340:00000000003300330000000000000000
#016360:0000003300000000
#017360:0000001323000000
#018360:13330000
#018320:0033002300000000
#021320:00000000000000001333330000000000
#021360:00000000000000000000002300000000
#023320:13230000
#023360:0033000000000000
#0233b0:00000000000000130000000000000000
#023370:00000000000000003300332300000000
#023320:00000000000000000000000000000013
#024360:0023000000000000
#024370:00000000000000130000000000000000
#0243b0:0000000000230000
#026380:13230000
#0263b0:0033000000000000
#0263b0:00000000000000130000000000000000
#026370:0000000000230000
#0273b0:0013
#027370:00000000000000000000332300000000
#028320:00000000000000000013000000000000
#028360:00000023
#028371:00000000000000000013000000000000
#0283b1:00000023
#0303b1:00000000000000001333330000000000
#030371:00000000000000000000002300000000
#033371:13332300
#0333b1:0053005300000000
#0333b1:00000000000000000000000000000013
#034371:0023
#035361:13332300
#035321:0053005300000000
#035321:00000000000000000000000000000013
#036351:0033003300000000
#036321:00332300
#0353b0:00000000000000000000000000000013
#036380:0023000000000000
#036321:00000000000000000000000000000013
#037361:0023000000000000
#0373b1:00000000000000000000000000000013
#038371:0023000000000000
#0403b1:1323
#040381:00530000
#040320:1323
#040350:00530000
#041350:13
#041320:0053000000000000
#041340:00530000
#041360:0000005300000000
#041330:0023
#041391:00130000
#0413b1:0000005300000000
#041381:0023
#042381:13
#0423b1:0053000000000000
#042391:00530000
#042371:0000005300000000
#0423a1:0023
#042340:00130000
#042320:0000005300000000
#042350:0023
#0423b0:0000000000000013
#043370:00530000000000000000000000000000
#0433b0:00230000
#043370:0000000000000013
#0443b0:0033330000000000
#044370:0023
#044361:00130000
#044321:0023
#045371:00000000001300230000000000000000
#046361:00000000001300230000000000000000
#047361:0000000000000013
#048321:53
#048361:0023000000000000
#048371:0000001300230000
#0483b1:0053
#049381:13
#0493b1:0053000000000000
#049391:00530000
#049371:0000005300000000
#0493a1:0023
#049340:00130000
#049320:0000005300000000
#049350:0023
#050350:13
#050320:0053000000000000
#050340:00530000
#050360:0000005300000000
#050330:0023
#050391:00130000
#0503b1:0000005300000000
#050381:0023
#050321:0000000000000013
#051361:00530000000000000000000000000000
#051321:00230000
#0533b1:00001323000000000000000000000000
#054321:00001323000000000000000000000000
#055321:13000033330000332300000000000000
#055361:0053005300000000
#055371:0000000000000013
#0563b1:0023000000000000
#0583b1:12
#058381:00220000
#058360:12
#058330:00220000
#058380:0000000000000013
#0593b0:0053000000000000
#059380:0000002300000000
#059321:0013000000230000
#059351:0000003300000000
#060321:0013230000000000
#061371:13230000
#0613b1:0053000000000000
#061361:00000000000000130000000000000000
#061321:00000000000000000023000000000000
#062321:1300330033230000
#062361:00000000005300000000000000000000
#0623b1:0000000000000013
#063371:0033000000000000
#0633b1:0000002300000000
#063320:0013000000230000
#063360:0000003300000000
#0643b0:0013230000000000
#065360:13230000
#065340:00330033000000000000000000000000
#065320:0033000000000000
#0653b1:00132300
#065391:00000000003300330000000000000000
#065371:0000003300000000
