This file was generated by Ched 2.7.0.0.
#TITLE ""
#ARTIST ""
#DESIGNER ""
#DIFFICULTY 0
#PLAYLEVEL
#SONGID ""
#WAVE ""
#WAVEOFFSET 0
#JACKET ""
#REQUEST "ticks_per_beat 480"
#00002: 4
#BPM01: 130
#00008: 01
#TIL00: ""
#HISPEED 00
#MEASUREHS 00
#00015:00000013
#00018:0000000000000013
#00114:1400001400000000
#00118:0000000000130000
#00115:00000013
#0011b:0000000000000013
#00112:0014000000000000
#00113:00140000
#00218:0000000000130000
#00215:00000013
#0021b:0000000000000013
#00212:1400001400000000
#00214:0014000000000000
#00213:00140000
#0031b:0000000000000013
#00315:00130000
#0031a:0024
#00312:00000000000000000000002400000000
#00412:0000000000130000
#00418:0013000000001300
#00415:0000000000000013
#00612:1300000000130000
#00618:00000013
#00615:0000000000000013
#0061b:00000033003333000000000000000000
#00818:0000000000000013
#00815:00000000000000000000000000000013
#00918:13330013
#00915:0000000000130013
#00910:41
#01018:0000000000130000
#01015:00000013
#0101b:0000000000000013
#01012:0013000000000013
#01215:00000000130000000000000000000033
#01218:00000000001300000000000000000000
#01213:00000000000000000000000000330000
#01214:0000000000000033
#01315:13330013
#01318:0000000000130013
#01718:00001300000000000000001300000000
#01715:0000130000130000
#01712:0000000000000013
#01710:41
#01818:13000000000000130013000000000000
#0181b:00000000130000000000001300000000
#01812:00000000000000000013000000000000
#01815:00001300000013000000001300000000
#01912:1300000000000013
#0191b:0013
#02015:00001300000013000013000000000000
#02018:13000000000000130000001300000000
#0201b:00000000130000000013000000000000
#02012:00000000000000000000001300000000
#02013:00000000000000000000000000000033
#0211b:00000000000000000000000000130000
#02115:00330000000000000000000000000013
#02114:33
#02116:0033000000000000
#02318:0000001313000000
#02315:13000000000000130000000000000013
#02312:0013000000000000
#0231b:0000000000330000
#02415:0000001300000013
#02418:00000000130000130000000000000000
#02518:13000000000000130000000000000000
#0251b:00000000130000000000001300000000
#02515:00000000000013000013000000001300
#02512:0013000000000000
#02510:41
#02618:1300000000000013
#02615:00000000000000130000000000000000
#02712:1313
#02718:00001300000000000000000000130000
#02715:0000130000330013
#0271b:00000000000013000000000000000013
#02812:00000000000000000013000000000000
#02912:1300000000000013
#02918:00001300000000000013001300000000
#02915:0000130013130000
#0291b:0000001300000000
#03018:13000000000000130000000000000000
#03015:0013001300000000
#0301b:00130000
#03012:00000000000000000033330000000000
#03212:00000000130000000013000000000000
#03215:13000000000000130000000000000000
#03218:0013001300002400
#0321b:00000000000000000013000000000000
#03214:00000000000000000000000000240000
#03210:41
#03312:00000013
#03318:14000000000014000000000000130000
#03315:0000000000000013
#0331a:0014000000000000
#03319:00140000
#0331b:00000000000000000000000000000013
#0331f:11
#03412:0013000013000000
#03415:00130000
#03418:00000000000013000000000000240000
#0341b:0013
#03414:00000024
#03518:00000000000000000000130000130000
#03515:00000013
#03514:1400001400000000
#03512:0014000000000000
#03513:00140000
#03818:0000000000001313
#03815:00000000000000000000000000130000
#0381a:00240000
#03816:0000002400000000
#03812:0024
#03918:000000000000000000130000000013000000000014000000
#03912:13000014
#03914:000000000000000000000014
#03915:0033000013000000
#0401a:14
#04016:00140000
#04018:00000013
#04015:0000000000000013
#04215:0000000000130000
#04218:0014000000001300
#0421a:1400001400000000
#04219:00140000
#04212:0000000000000013
#04210:41
#04415:0013130000001300
#0441b:0013130000130000
#04418:0000000000000013
#04518:0013000000001300
#04515:00000013000000000000000000001300
#0451b:00000000001300130000000000000000
#04512:1300000000130000
#04618:00000013000000000000130000001300
#04615:0013000000001300
#04612:00000000001300130000000000000000
#0461b:13
#0471b:1300000000000013
#04718:0013001300001300
#04715:0000130000130000
#04712:0013
#04819:00130000
#04818:00000013
#04815:00000000000000000000000000130000
#04814:00130000
#04812:0000001300000000
#05218:0000000000000013
#05212:0024000000232300
#0521a:0000002400000000
#0521b:0000000000232300
#0541b:1300000000130000
#05418:0000000000000013
#05415:00000013
#05412:00000033003300000000000000000000
#05518:0000000000130000
#05512:13000033000000330000000000000000
#05516:00130000
#05510:41
#05618:00000000130000000000130000130000
#0561b:0000001300000000
#05615:0000001300001300
#05612:00130000
#05715:12120000
#05719:0012001200000000
#05718:00000012
#05714:0000000000120000
#05716:0000000000000012
#0051b:1300000000130000
#00515:00000013
#00518:0000000000000013
#00512:00000033003300000000000000000000
#0071b:13
#00715:0000001300000000
#00718:0013
#05018:1400001400130000
#05015:00000013
#05012:1400001400000013
#05014:0014000000000000
#05013:00140000
#0501a:0014000000000000
#05019:00140000
#0501b:0000000000000013
#01415:0000000000130000
#01418:00000013
#01412:0000000000000013
#0141b:0013000000000013
#0311b:1300000000000013
#03112:0013
#04118:1400001400001300
#04115:0000000000130000
#04112:0000000000000013
#0411a:0014000000000000
#04119:00140000
#0411f:21
#04318:00000000130000000000002400000000
#04314:0024
#04312:0000000000000024
#0431a:0000000000000024
#0491a:1400001400000000
#04918:0014000000130000
#04915:00000013
#0491b:0000000000000013
#04919:00140000
#04914:1400001400000000
#04912:0014000000000000
#04913:00140000
#0511b:00132300
#05112:00000000130000000000002300000000
#05115:0013
#05118:00000000000000000000001300000000
#0511a:0000000000000024
#05315:1300000000000013
#05312:0000000000130000
#05318:00000013
#0531b:00000033003300000000000000000000
#05815:00000013
#05818:0000000000130013
#05915:0000000000130000
#05918:00000013
#05912:0000000000000013
#0591b:0013000000000013
#06118:00000000130000000000000000000033
#06115:00000000001300000000000000000000
#0611a:00000000000000000000000000330000
#06119:0000000000000033
#06218:13330013
#06215:0000000000130013
#06318:0000000000130000
#06315:00000013
#0631b:0000000000000013
#06312:0013000000000013
#03712:00240000
#03716:0000002400000000
#0371a:0024
#03715:00000000000000000000000000333300
#06615:23
#03618:00000000000000000000000000333300
#06513:0033003300000000
#06512:00000033003300000000000000000000
#06514:00330000000000330000000000000000
#06519:00000000000000000033000000000033
#0651a:0000000000330033
#0651b:00000000000000000000003300330000
#00154:6400002400000000
#00153:00540000
#00152:0024000000000000
#0025b:0000000000000053
#00252:5400002400000000
#00254:0024000000000000
#00253:00640000
#0035b:0000000000000053
#00458:0053000000000000
#0075b:63
#00752:0000000000000014
#0075a:0000000000000014
#00958:53
#00955:0000000000000053
#01355:53
#01358:0000000000000063
#02355:53000000000000000000000000000053
#02358:0063
#0235b:00000000000000000000001300000000
#02352:0053000000000000
#0245b:0000000000130000
#02458:00000000000000630000000000000000
#02558:00000000000000130000000000000000
#02555:00000000000000000013000000000000
#0255b:00000000000000000000001300000000
#02658:63
#02655:00000000000000630000000000000000
#02652:0000000000130000
#02752:0063
#0275b:00000000000000000000000000000013
#02852:00000000000000000053000000000000
#0405a:54
#04056:00240000
#0445b:00530000
#04455:00530000
#0475b:0000000000000053
#0515a:0000000000000014
#05252:0014000000000000
#0525a:0000001400000000
#05552:53
#05556:00530000
#05759:0000001200000000
#00555:00000000000000130000000000000000
#00658:00000000000000130000000000000000
#01052:0053000000000000
#0145b:0063000000000000
#01952:53
#0195b:0053
#0315b:63
#03152:0063
#03358:5400002400000000
#03359:00540000
#0335a:0024000000000000
#03554:6400002400000000
#03552:0024000000000000
#03553:00640000
#0365b:0013
#03655:0013
#03952:53
#04158:5400002400000000
#0415a:0024000000000000
#04159:00640000
#0425a:6400002400000000
#04258:0024000000000000
#04259:00540000
#04252:0000000000000053
#04852:0000006300000000
#0495a:6400002400000000
#04958:0024000000000000
#04959:00540000
#04954:6400002400000000
#04952:0024000000000000
#04953:00540000
#05052:5400002400000053
#05054:0024000000000000
#05053:00640000
#05058:5400002400000000
#0505a:0024000000000000
#05059:00640000
#0505b:0000000000000063
#05358:00000000000000130000000000000000
#05455:00000000000000130000000000000000
#05858:0000000000000063
#0595b:0063000000000000
#06258:63
#06255:0000000000000053
#06352:0053000000000000
#001340:1400005400000000
#001320:0054000024000000
#001330:00540000
#002320:1400005400000000
#002340:0054000024000000
#002330:00540000
#0023b0:0000000000000013
#003380:0023000000000000
#0033b0:0000000000000013
#004380:0033000000000000
#0043b0:0023
#005320:00001333003300000000000000000000
#005350:00000000000000230000000000000000
#0063b0:00001333003333000000000000000000
#006380:00000000000000230000000000000000
#0073b0:13
#007380:00230000
#007320:00000000000000000000001400002400
#0073a1:00000000000000000000001400002400
#009381:13330000
#0093b1:0023
#009351:0000000000000013
#010321:0033000000000000
#010351:0000002300000000
#0113b1:0013333333000000
#0113a1:00000000003300330033000000000033
#011391:0000000000330033
#011381:00000000000000000000003300330000
#011371:00000033
#0123b1:23
#012351:00000000000000130033000000000033
#012341:0000000000330033
#012331:00000000000000000000003300330000
#012321:00000033
#013351:33330000
#013321:0023
#013381:0000000000000013
#0143b1:0033000000000000
#014381:0000002300000000
#015321:0013333333000000
#015331:00000000003300330033000000000033
#015341:0000000000330033
#015351:00000000000000000000003300330000
#015361:00000033
#016321:23
#0163b0:1323
#0163a0:00330000000000330000000000000000
#016390:0033003300000000
#016380:00000033003300000000000000000000
#016370:00330000
#016321:0013
#016331:00000000000000000033000000000033
#016341:0000000000330033
#016351:00000000000000000000003300330000
#016361:00000033
#017321:23
#0173b1:0000001323000000
#018321:00000000000000000000000000133333
#019321:33
#019351:00000023000000000000000000000000
#0193b1:00000000001333333300000000000000
#019381:00000000000000000000002300000000
#020321:0000000000000013
#020331:00000000000000000000000000000033
#021341:33000000003300000033000000000000
#021351:00330000330000000000330000000000
#021361:00003333000000000000002300000000
#021331:0000003333000000
#021321:00000000000000330000000000000000
#0223b1:1333
#0223a1:00330000000000330033000000000000
#022391:0033003300330000
#022381:00000033003300000000002300000000
#022371:00330000
#022351:00000000000000000000000000130000
#023351:33230000
#023321:0033000000000000
#023381:0013
#0233b1:00000000000000000000332300000000
#023351:00000000000000000000000000130033
#024321:0023000000000000
#024381:00000000000000130000000000000000
#0243b1:0000000000230000
#026381:13
#0263b1:0023000000000000
#026351:00000000133333330000000000000000
#026321:0000000000230000
#027321:0013
#027351:00000000000000000000332300000000
#028321:00130000000000330033000000000000
#028331:0033003300000000
#028341:00000033003300000000000000000000
#028351:00330023
#030321:00000000000000001333330000000000
#030351:00000000000000000000002300000000
#0303b1:00000000000000000000000000133333
#0313b1:33
#031381:00000023000000000000000000000000
#031321:00000000001333333300000000000000
#031351:00000000000000000000002300000000
#033381:1400005400000000
#0333a1:0054000024000000
#033391:00340000
#035341:1400005400000000
#035321:0054000024000000
#035331:00340000
#035381:00000000000000000000000000000013
#0363b1:0033003323000000
#036381:00330000
#035320:00000000000000000000000000000013
#036350:0033003323000000
#036320:00330000
#036380:00000000000000000000000013333300
#0363b0:00000000000000000000000000000033
#037380:0023000000000000
#037350:00000000000000000000000013333300
#037320:00000000000000000000000000000033
#038350:0023000000000000
#039320:13
#039350:00003323000000000000000000000000
#0403a0:1424
#040360:00540000
#041380:1400005400000000
#0413a0:0054000024000000
#041390:00540000
#0423a0:1400005400000000
#042380:0054000024000000
#042390:00540000
#042320:0000000000000013
#043350:0023000000000000
#0443b0:00130000
#044380:0023
#044351:00130000
#044321:0023
#0473b1:0000000000000013
#048381:0023000000000000
#048321:0000001300000000
#048351:0000000000230000
#0493a1:1400005400000000
#049381:0054000024000000
#049391:00540000
#049340:1400005400000000
#049320:0054000024000000
#049330:00540000
#050320:1400005400000000
#050340:0054000024000000
#050330:00540000
#050381:1400005400000000
#0503a1:0054000024000000
#050391:00540000
#050321:0000000000000013
#051351:0023000000000000
#0503b0:0000000000000013
#051380:0023000000000000
#0533b0:00001333003300000000000000000000
#053380:00000000000000230000000000000000
#054320:00001333003300000000000000000000
#054350:00000000000000230000000000000000
#055320:13000033000000332300000000000000
#055360:00330000
#055380:0000000000000013
#0563b0:0023000000000000
#055321:0000000000000013
#056351:0023000000000000
#0583a1:12
#058381:00220000
#058340:12
#058360:00220000
#058380:0000000000000013
#0593b0:0033000000000000
#059380:0000002300000000
#060320:0013333333000000
#060330:00000000003300330033000000000033
#060340:0000000000330033
#060350:00000000000000000000003300330000
#060360:00000033
#061320:23
#061380:00000000000000130033000000000033
#061390:0000000000330033
#0613a0:00000000000000000000003300330000
#0613b0:00000033
#062380:33330000
#0623b0:0023
#062350:0000000000000013
#063320:0033000000000000
#063350:0000002300000000
#0643b0:0013333333000000
#0643a0:00000000003300330033000000000033
#064390:0000000000330033
#064380:00000000000000000000003300330000
#064370:00000033
#0653b0:23
#065351:1323
#065341:00330000000000330000000000000000
#065331:0033003300000000
#065321:00000033333300000000000000000000
#065380:0013
#065390:00000000000000000033000000000033
#0653a0:0000000000330033
#0653b0:00000000000000000000003333330000
#066380:23
