This file was generated by Ched 2.7.0.0.
#TITLE ""
#ARTIST ""
#DESIGNER ""
#DIFFICULTY 0
#PLAYLEVEL
#SONGID ""
#WAVE ""
#WAVEOFFSET 0
#JACKET ""
#REQUEST "ticks_per_beat 480"
#00002: 4
#BPM01: 130
#00008: 01
#TIL00: ""
#HISPEED 00
#MEASUREHS 00
#00018:00000013
#00015:0000000000000013
#00115:0013001300130000
#00118:00000013
#0011b:1300000000000013
#00112:1300130013000013
#00119:0013001300000000
#00117:00130000
#00218:0013001300130000
#00215:00000013
#00212:1300000000000013
#00216:0000130000000013
#0021b:13131300
#00214:0013001300000000
#00219:00000013
#00316:00000000130000001400141400001300
#0031b:0000000023000013
#00312:00000000130000000000002300000000
#00412:0013000000130000
#00414:00000013
#00416:0000130000000013
#0041b:0000130000000013
#00417:0000000000130000
#00419:00000013
#00517:00130013000000000000000000001300
#00518:00000000001300130000000000000000
#0051b:1300000000130000
#00515:0000001300000000
#00512:00000000000000130000000000000000
#00519:00000013
#00513:0013000000000000
#00516:00000000000000000000001300000000
#00514:00000000000000000000000000130000
#0051a:00000000000000000000000000000013
#0061a:00000000001300000000000000000000
#00616:0000001300130000
#0061b:00001300000000130000130000000000
#00614:00000013
#00617:00000013000000000000000000001300
#00612:13000000000000130000000000001300
#00619:00000013
#00613:00130000
#0071b:1300001300000000
#00712:0013001313000000
#00717:0013000000000000
#00716:13
#00818:0000000000000013
#00815:000012000000000000001200000000000000000000120000000000000000000000000000000000000000000000130000
#00816:220012001200120000120000120000001200000000000000
#00817:000000000000120000000000000000120000000000000000000000001200000000000000000000000000000000000000
#00915:0000000000130000
#00918:00000012000000001200000013000000
#00912:1300000012000013
#0091b:1300000000000013
#00916:00000000120012000000000000120000
#0091c:0000001200000000
#00913:00000000000000000000001200000000
#00910:41
#01019:0013
#01017:00000013
#0101b:1313000000130013
#01016:0000000000000013
#01014:00130000
#01012:0000001300001300
#0111b:00001300131300130000000000000000
#01116:0000001414141414
#01113:00000000000000000013000000130000
#01112:12000000000000000000001300000000
#0111a:00000000000000000000000000000013
#0111c:12
#01212:14000000001300130000001300130000
#0121b:00130013
#01216:00001400001400140013000000000013
#01217:0000000000130013
#01712:00001300000000000000001300000000
#01716:00000013000013001300000000000000
#01714:0000130000130000
#01718:00000000001300000000000000001300
#01719:00000000000000000013000000000000
#01717:00000000000000000000001300000000
#0171b:00000000000000000000000000130000
#01715:00000000000000000000000000000013
#0171c:12
#01710:41
#01816:00000000000000130014001400000000
#0181b:00001300000013000000001300000000
#01818:00000000000000000000000000130000
#01815:00000000000000000000000000001613
#01812:13000000130000000013000000000000
#01918:16000013000000130000000000000000
#01912:00001313000000001600000000000000
#0191b:00000000000000000000131300001300
#01916:00000000000000000000000000000014
#01915:00000000001316000000001300000000
#02017:00001300000000130000000000000000
#0201b:13000000000000000000001300000000
#02018:00000000000000000013000000000013
#02012:13001300000013130000000000001300
#02015:00000000000000000013000000000000
#02016:00000000000000000000001300000000
#02115:13001600130000160013000000000000
#0211b:00130013000000000000001300130013
#02118:00000000001300000000130000000000
#02112:00000000000013002300002300130013
#02212:13000000130000000000001300000000
#0221b:00130000001300000000001300130000
#02218:0000000013000000000000001300001400001300000000000000000000001300
#02215:00000013000000000000130000001300
#02214:00000000000000141400000000000000
#02317:0013000013000000
#02312:13001300000000001300000000000013
#02316:00000000000013000000001300000000
#02315:0000000000000013
#02318:00000000000000000000000000130000
#0231b:13
#0241b:0000000013000000000000000000000000130000000000000000000000000000
#02416:00000013000000000000000000000000
#02417:00000000000013130000000000000000
#02412:0000000000000000000000000000000000130000000000000000000013000000
#02415:00000000000000000000000000000016
#02419:00130000
#02414:00000000001300130000000000000000
#02418:00000000000000000000000000130000
#0251b:13001300000000130013000000001300
#02514:00000000001300000000000000000000
#02517:0000001300000000
#02512:00000000000000130000001300000000
#02515:13000000000000000000000000000016
#02516:00000013000000000014001400000000
#02519:00130000
#02510:41
#02612:1300000000130000
#02617:00000000001300000000000000000000
#02616:0013001300001300
#0261b:00001300000000130000000013000000
#02618:0000130000000013
#02615:00000000000000130000000000000013
#02716:0015000013000000
#0271b:00000000130000001300000000000013
#02715:00000000000015000000000000130000
#02712:13000000000000000000131300000013
#02718:0000000000000013
#02717:00000000000000000000001300000000
#0281b:00130000000000130000000000000000
#02815:00001600001613000000000000000000
#02818:00000013000000000000000000000000
#02812:00000000130000130013000000000000
#02816:00000000000000000013000000000000
#02912:14000000001500000000001300000023
#02916:00130000140000000000000000000000
#02914:0000000014000000000000000000001400000000000000000000000000000000
#02918:00000013000000141400130000001300
#02919:00000000001500000000000000000000
#0291b:00000000000000000000001300000000
#02915:00000000000000000013000000130000
#0301b:13131300
#03018:00130000000013000013000000001600
#03015:00001300001300000000130000130016
#03012:00000023000000230000001300000000
#03215:00130000001300000013000000000000
#0321b:13000000000013000013000000000000
#03218:00001300130000130000000016160000
#03212:00000013000000130000000026260000
#03210:41
#03312:0000001212001300
#03318:00000000140000000000000000130000
#03315:0000000000000013
#0331a:1400001400000000
#03316:0014000000000000
#0331b:00000000000000000000000000000013
#0331f:11
#0341b:0013130000000000
#03416:00130000
#03414:0000001300000000
#03412:13000000000000001300000016160000
#03419:0000001300000000
#03417:0013
#03418:00000000000000000000000026260000
#0351a:00000000000000000000001400000000
#03516:0014000000001400
#03512:14000000000014000000140000140000
#0351c:0000001212000000
#03514:00140000
#0361b:00000000000000000000000013000013
#03615:00000000000000000000000000131600
#03612:00000000000000000000000000000013
#0371b:00001300000000000000000000000013
#03714:00000000001400000000000000000000
#03716:0013000000000000240000000000140000000000000000000000000000000000
#03712:00000000000000001400000013000013
#03718:00000000000024000000000000130000
#03715:0000000000000016
#0371a:0024
#03818:00000000001400000000000013001300
#03815:00000000000000000000120000130013
#03812:0013000024000000
#03817:0013000000000000000000000000000000000000000000000000000000000000
#03816:00000000240000140000000000000000
#0381a:0014
#03819:0000000000120000
#03814:0000002400000000
#0391b:130000000000000000130000000000000000130000000000000000001300000000000000130000000000000000000000
#03916:000000000000130000230000000000000000000000000000140000001400000000000000130000001400000000000000
#03912:130000000000000000130000130000000000000000001300
#03917:000000000000000000000013
#04615:00000013
#04618:0000000000000013
#04613:00000000001300000000000000000000
#04617:0000001300000000
#04612:00001300000000130000130000000000
#04616:00000013000000000000000000000000
#0461b:13000000000000130000130000000000
#0461a:00130000
#04716:00000014000000000000000013001300
#0471b:13000000000013000000000000131300
#04712:1300001313000000
#04718:0014000000000000
#04714:0000140000130000
#04717:00000000000000000013000000000000
#04719:00000000000000000000001300000000
#04812:1300130013130000
#0481b:13000000130000001300000013130000
#04816:00001300000000000000000013130000
#04819:0013000000000000
#04817:0000001300000000
#0521b:0000002300002313
#05216:1424142414280000
#05218:00000000000000000000000000000013
#05212:0023000000232800
#05315:1313000000000013
#0531b:00000013000000000000130000000000
#0531a:00000000001400000000000000000000
#05312:00000013000000140000180013000000
#05318:00130000000000000000000000000000
#05316:00000000001300000000000013000000
#05319:0000000000000013
#05317:00000000000000130000000000000000
#05412:18000013001400000000130000001300
#05417:00000000001300000000130000001300
#0541b:13000013000000000000000013000000
#05415:00130000000000000000000000000000
#05418:0013000000000000
#0541a:00000000000000140000000000000000
#05416:00000000000000130000000013000000
#0551b:13000000130000330000000000000000
#05516:13000033000000001400140000000000
#05512:0013001300130013
#05517:0013001300000013
#05510:41
#05717:12
#0571b:0012000000000000
#05718:0000120000000012
#0571c:0000001200120000
#0571a:00000012
#05712:2200220022000022
#05716:0000000000220000
#05714:00000022
#05116:00000000130000001400141400142400
#05112:00000000130000000000002300000000
#0511b:0000000023000023
#01318:00000000120012000000130000120000
#01315:00000013
#0131b:13000000000000000000001200001300
#01312:1300001200000013
#01316:00000012000000001200000000000000
#0131c:0012
#01414:0013
#01416:00000013
#01412:1313000000130013
#01417:0000000000000013
#01419:00130000
#0141b:0000001300001300
#01512:12001300131300130000000000000000
#01516:0000001414141414
#0151a:00000000000000000013000000130000
#0151b:00000000000000000000001300000000
#01513:00000000000000000000000000000013
#0151c:12
#0161b:13130000
#01616:00141400001414000012000000000000
#01612:00000013000000130000000000120000
#0161c:0012
#0161a:0000000000120012
#01614:00000000000000000000001200000012
#01618:00000012
#03115:00000013000000160000130000000000
#03118:00001300001300001600001300000000
#03112:16000000000016000000001300001300
#03116:00000000000000000000000000140014
#0311b:00000013000000000000000000000000
#04016:24140000002414140000000000000000
#0401a:0014000014000000
#04012:0014000014000000
#04015:00000013
#04018:0000000000000013
#04118:0000000000130000
#04115:00000013
#04112:1400000000000013
#04119:0013000000000000
#04114:0014001400000000
#04116:00140000
#0411b:2300000000000013
#0411c:00120000
#0411a:0000001200000000
#0411f:21
#0421b:0000000000001313
#04217:0000000000000013
#04212:2300120000131300
#04214:0013001200000000
#0421a:14
#04218:0014001400000000
#04216:0000140000130000
#04210:41
#04317:00130000
#04316:00000000000000001400141400002400
#04312:0000000023000013
#0431b:00000000130000000000002300000000
#0441b:0013000000130000
#04412:0000130000000013
#04417:0000130000000013
#04419:00000013
#04416:0000000000130000
#04414:00000013
#04516:00130013000000000000000000001300
#04515:00000000001300130000000000000000
#04512:1300000000130000
#04518:0000001300000000
#0451b:00000000000000130000000000000000
#04514:00000013
#0451a:0013000000000000
#04517:00000000000000000000001300000000
#04519:00000000000000000000000000130000
#04513:00000000000000000000000000000013
#04915:0013000000130000
#04918:00120013
#0491b:0000000000000013
#0491c:12
#0491a:0012001200000000
#04912:2300140000000013
#04914:0000001400000000
#05012:1200000000001313
#05016:0000120000000013
#0501b:2300000000131300
#05017:0000000000130000
#05018:0013001400000000
#05014:0012001200000000
#0501a:00140000
#0561b:1300130013130000
#05612:13000000130000001300000013130000
#05617:00001300000000000000000013130000
#05614:0013000000000000
#05616:0000001300000000
#05816:00000012140000001200140000000000
#05814:00000014
#0581b:1300000000000013
#05812:1300001200000014
#05818:0000001200000000
#0581c:0012
#05819:00000000000000000000001200000000
#05817:00000000000000000000000000120000
#05914:0013
#05916:00000013
#05912:1313000000130013
#05917:0000000000000013
#05919:00130000
#0591b:0000001300001300
#06012:1213130000000000
#06015:00000000001300000000000000000000
#06018:0000001300000000
#0601b:00000000000000130000000000000000
#06016:0000000014141414
#0601a:00000000000000000013000000130000
#06013:00000000000000000000001300000013
#0601c:12
#06116:00001400001400140000000000001414
#06117:00000000000000000013000000000000
#06114:0000000000130000
#06118:00000000000000000000001300000000
#06115:00000013
#0611b:00000000001300130000000000130000
#0611a:14
#06112:00130000
#06216:0000141200140000
#06218:00000012000000001200000014000000
#06212:1300000012000013
#0621a:0000000000000014
#0621b:13
#0621c:0000001200000000
#06215:00000000000000000000001200000000
#06217:00000000000000000000000000120000
#06319:0013
#06317:00000013
#0631b:1313000000130013
#06316:0000000000000013
#06314:00130000
#06312:0000001300001300
#0641b:0013130000000000
#06418:00000000001300000000000000000000
#06415:0000001300000000
#06412:12000000000000130000000000000000
#06416:0000000014141414
#06413:00000000000000000013000000130000
#0641a:00000000000000000000001300000013
#0641c:12
#06516:14000014000014000000000000000000
#06512:00140000001400140000001300000013
#0651a:0014140000000000
#0651b:00001313
#06515:00000000000000000013000000001300
#06518:00000000000000000000130000130000
#06612:2c
#00252:2300000000000053
#0025b:13
#00254:0063006300000000
#00256:0000230000000053
#0035b:0000000013000053
#00356:0000000000000013
#00352:00000000000000000000001300000000
#0075b:5300000000000013
#00757:0023000000000000
#00756:5300000000000013
#00752:0023000000000000
#00952:0000000000000063
#01252:64
#01256:00002400000000540000000000000000
#00152:13
#0015b:23
#00159:0053005300000000
#00157:00230000
#0235b:53000000000000000000001300000000
#02352:00005300000000005300000000000053
#02357:0053000053000000
#02459:0000000000130000
#02457:00000000000000530000000000000000
#0245b:0000000000000000000000000000000000230000000000000000000000000000
#02454:00000000000000530000000000000000
#02452:0000000000000000000000000000000000230000000000000000000000000000
#02456:0000000000130000
#02652:63
#02656:0063000000000000
#0265b:00000000000000630000000000000000
#02657:0000000000130000
#0275b:0053
#02756:0035000000000000
#02755:0000004500000000
#02752:00000000000000000000000000000033
#02852:00000000000000000053000000000000
#02856:00000000000000000053000000000000
#03652:00000000000000001300000000000053
#03656:0014
#04756:0000000000000053
#04852:23230000
#04856:0053000000000000
#04859:0053000000000000
#04857:0000005300000000
#0485b:00232300
#01958:16
#01952:0016
#0045b:00530000
#00456:00530000
#00855:000022000000000000002200000000000000000000220000000000000000000000000000120000000000000000000000
#00856:520052005200520000520000520000005200000000000000
#00857:000000000000220000000000000000220000000000000000000000002200000000000000000000000000000000000000
#0105b:0023000000000000
#01052:0000005300000000
#0135b:0000000000000053
#01452:0023000000000000
#0145b:0000006300000000
#01852:53530000
#0185b:0053000000000000
#0205b:53
#02057:0053000000000000
#02052:0053000000000000
#02552:00000000000000330000003300000000
#0255b:00000000000000000043000000000000
#0335a:5400002400000000
#03358:00540000
#03356:0024000000000000
#03355:0000000000000053
#03552:6400002400000000
#03556:0024000000000000
#03554:00640000
#03452:23
#03756:0023000000000000440000000000000000000000000000000000000000000000
#0375b:00000000000000000000000000000063
#03758:0000004400000000
#0375a:0044
#03857:0023000000000000000000000000000000000000000000000000000000000000
#03856:00340000
#03854:0000003400000000
#03852:0034
#0575c:0000001200000000
#0425b:0000000000000063
#04257:0000000000000063
#0425a:24
#04258:0054005400000000
#04256:00240000
#04252:13220000
#04254:0000006200000000
#04352:0000000013000063
#0435b:00000000000000000000001300000000
#04152:24
#04154:0064006400000000
#04156:00240000
#0415a:0000005200000000
#0415c:00220000
#0415b:13
#04452:00630000
#04457:00630000
#05052:2200000000000053
#05056:0000220000000053
#05054:0062006200000000
#0505a:00240000
#05058:0000005400000000
#0505b:13
#0495c:22
#0495a:0052005200000000
#04958:00220000
#04952:13240000
#04954:0000006400000000
#05156:0000000000000034
#05256:0044003400480000
#05252:00000038
#03152:36
#03158:0046
#05352:00000000000000340000000000000000
#0545a:00000000000000440000000000000000
#05556:53
#0555b:00534300
#05552:0023000000330000
#05557:0000002300000063
#0565b:23230000
#05657:0063000000000000
#05654:0063000000000000
#05652:00232300
#05656:0000006300000000
#0585b:0000000000000053
#06156:00002400000000640000000000000000
#0615a:54
#05952:0023000000000000
#0595b:0000006300000000
#06252:0000000000000063
#0635b:0023000000000000
#06352:0000005300000000
#04555:00000000000000130000000000000000
#04652:00000000000000130000000000000000
#00558:00000000000000130000000000000000
#0065b:00000000000000130000000000000000
#0013b0:1323
#001390:0053005300000000
#001370:00530000
#002320:1323
#002340:0053005300000000
#002360:00530000
#002320:0000000000000013
#003370:0023000000000000
#002361:0000000000000013
#0033b1:0023000000000000
#0033b1:0000000000000013
#004371:0023000000000000
#0043b1:00130000
#004371:0023
#004360:00130000
#004320:0023
#0073b0:13230000
#007370:0053000000000000
#007361:13230000
#007321:0053000000000000
#0073b1:0000000013005323
#007371:00000000000000000053003300000000
#007320:00000000000000000000001300000000
#007360:0000000000005323
#008360:120052005200520000520000520000005200000000000000
#008350:000052000000000000005200000000000000000000520000000000000000000000000000220000000000000000000000
#008370:000000000000520000000000000000520000000000000000000000005200000000000000000000000000000000000000
#009320:0000000000000013
#010360:0023000000000000
#0103b1:0013000000000000
#010371:0000002300000000
#010320:0000001300000000
#010360:0000000000230000
#011360:0014240000000000
#012320:14240000
#012360:0054000000000000
#012360:00000000000000140000000000000000
#0123a0:00000000000000000024000000000000
#0133b0:0000000000000013
#014370:0023000000000000
#014321:0013000000000000
#014361:0000002300000000
#0143b0:0000001300000000
#014370:0000000000230000
#015360:0014240000000000
#0173b0:0000001323000000
#018320:13
#018360:0023000000000000
#0183b1:0013000000000000
#018371:00230000
#018320:00130000
#018360:0000002300000000
#0203b0:13230000
#020370:0033000000000000
#020321:0013000000000000
#020361:00230000
#0233b1:13230000
#023371:0033000000000000
#023320:0013000000000000
#023360:00230000
#0233b0:00000000000000130000332300000000
#023370:0033
#023321:0013
#023361:0000000000230000
#023320:00000000000000000000000000000013
#024360:0023000000000000
#024370:00000000000000130000000000000000
#0243b0:0000000000000000000000000000000000530000000000000000000000000000
#024390:0000000000230000
#024341:00000000000000130000000000000000
#024321:0000000000000000000000000000000000530000000000000000000000000000
#024361:0000000000230000
#026321:13230000
#026361:0033000000000000
#0263b1:00000000000000130000000000000000
#026371:0000000000230000
#0273b1:1323000000000000
#027321:0000132300000000
#0273b1:0013
#027371:0000000000230000
#028321:00000000000000000013000000000000
#028371:00000023
#028360:00000000000000000013000000000000
#0283b0:00000023
#0333a0:1400005400000000
#033360:0054000024000000
#033380:00340000
#033321:12220000
#033350:0000000000000013
#034320:53
#034350:0023000000000000
#035320:1400005400000000
#035360:0054000024000000
#035340:00340000
#0353c1:12220000
#035360:00000000000000000000000000000014
#0363a0:00003400005434000000000000000000
#036360:00000054340000542400000000000000
#035321:00000000000000000000000000000013
#036361:0023000000000000
#036321:00000000130000532300000000000000
#036361:00000000005333000000000000000000
#036321:00000000000000000000000000000013
#037361:0053000000000000000000000000000000000000000000000000000000000000
#037321:0023000000000000
#0373b1:00000000000000000000000000000013
#038371:0053000000000000000000000000000000000000000000000000000000000000
#0383b1:0023000000000000
#041321:1424
#041341:0054005400000000
#041361:00540000
#0413c0:00120000
#0413a0:0000005200000000
#041380:0022
#0423a0:1424
#042380:0054005400000000
#042360:00540000
#042321:00120000
#042341:0000005200000000
#042361:0022
#0423b1:0000000000000013
#043361:0023000000000000
#042370:0000000000000013
#043320:0023000000000000
#043320:0000000000000013
#044360:0023000000000000
#044320:00130000
#044360:0023
#044371:00130000
#0443b1:0023
#047361:0000000000000013
#048321:53330000
#048361:0033000000000000
#048341:0000002300000000
#048390:0013000000000000
#0483b0:00335300
#048370:0000003300230000
#0493c0:1222
#0493a0:0052005200000000
#049380:00520000
#049321:00140000
#049341:0000005400000000
#049361:0024
#050321:1222
#050341:0052005200000000
#050361:00520000
#0503a0:00140000
#050380:0000005400000000
#050360:0024
#050320:0000000000000013
#051370:0023000000000000
#050361:0000000000000013
#0513b1:0023000000000000
#055361:13000033230000000000000000000000
#055321:0053000000000000
#0553b0:00000000130000332300000000000000
#055370:0000005300000000
#055370:0000000000000013
#0563b0:53330000
#056370:0033000000000000
#056390:0000002300000000
#056341:0013000000000000
#056321:00335300
#056361:0000003300230000
#0583b1:0000000000000013
#059371:0023000000000000
#059320:0013000000000000
#059360:0000002300000000
#0593b1:0000001300000000
#059371:0000000000230000
#060361:0014240000000000
#0613a1:14240000
#061361:0054000000000000
#061361:00000000000000140000000000000000
#061321:00000000000000000024000000000000
#062321:0000000000000013
#063361:0023000000000000
#0633b0:0013000000000000
#063370:0000002300000000
#063321:0000001300000000
#063361:0000000000230000
#064361:0014240000000000
