This file was generated by Ched 2.7.0.0.
#TITLE ""
#ARTIST ""
#DESIGNER ""
#DIFFICULTY 0
#PLAYLEVEL
#SONGID ""
#WAVE ""
#WAVEOFFSET 0
#JACKET ""
#REQUEST "ticks_per_beat 480"
#00002: 4
#BPM01: 130
#00008: 01
#TIL00: ""
#HISPEED 00
#MEASUREHS 00
#00119:14141400
#00118:0014000000140000
#0011a:0000001400000000
#00213:14141400
#00212:0014000000140000
#00214:0000001400000000
#00319:14141400
#0031a:0014000000140000
#00318:0000001400000000
#00413:14141400
#00414:0014000000140000
#00412:0000001400000000
#0051a:14
#00514:00140000
#00518:0014
#00512:00000014
#0061a:14
#00614:00140000
#00618:0014
#00612:00000014
#0071a:14
#00712:00000000000000001400003400000000
#0091a:1414
#00914:00140014
#00910:41
#01018:1414
#01012:00140014
#0111a:14
#01118:00343400
#01212:14
#01214:00343400
#01318:1414
#01312:00140014
#0141a:1414
#01414:00140014
#01614:14
#01612:00343400
#01518:14
#0151a:00343400
#0171a:1414
#01714:00140000
#01710:41
#01812:1414
#01818:00140000
#0201a:14
#02014:00140000
#02018:0014
#02012:00000014
#0231a:1414
#02314:00140000
#02412:1414
#02418:00140000
#0251a:14
#02514:0000140000140000
#02518:00001414
#02510:41
#02612:14
#02618:0000140000140000
#02614:00001414
#0271a:14
#02714:00140000
#02718:0014
#02712:00000014
#02818:14
#02812:00140000
#0281a:0014
#02814:00000014
#03119:14140000
#03113:00001414
#03218:14141400
#03214:0014001400000000
#03212:00000024
#03210:41
#03319:14140000
#0331a:0014000000000000
#03318:0000001400000000
#03312:00000014
#0331f:11
#03418:1400001400000000
#03414:00141400
#0341a:00000024
#03513:14140000
#03512:0014000000000000
#03514:0000001400000000
#0351a:00000014
#03614:1400001400000000
#03618:00141400
#03714:00141400
#03718:0000001400000000
#0371a:24000014
#03712:24
#03818:00141400
#03814:0000001400000000
#03812:24000014
#0381a:24
#0391a:14
#03914:00140000
#03918:0014
#03912:00000014
#04018:14
#04114:0014000000140000
#04113:24141400
#04112:0000001400000000
#0411f:21
#04219:14141400
#0421a:0014000000140000
#04218:0000001400000000
#04210:41
#04312:14
#04318:00140000
#04314:0014
#0431a:00000014
#04414:1414
#0441a:00140000
#04418:00000014
#0451a:00140000
#04516:0014
#04512:24000014
#04612:00140000
#04616:0014
#0461a:24000014
#04918:0014000000140000
#04919:24141400
#0491a:0000001400000000
#05013:14141400
#05012:0014000000140000
#05014:0000001400000000
#0511a:14
#05114:00140000
#05118:0014
#05112:00000014
#05218:1414
#05212:00140000
#05214:00000014
#05719:14140000
#05713:14140000
#05718:00001414
#05714:0000000000140014
#05914:14
#05912:00343400
#05818:14
#0581a:00343400
#0601a:14
#06014:00140000
#06018:0014
#06012:00000014
#0611a:14
#06114:00140000
#06118:0014
#06112:00000014
#0621a:14
#06218:00343400
#06312:14
#06314:00343400
#0641a:14
#06414:00140000
#06418:0014
#06412:00000014
#0651a:14
#06514:00140000
#06518:0014
#06512:00000014
#05312:00140000
#05316:0014
#0531a:24000014
#0541a:00140000
#05416:0014
#05412:24000014
#0661a:24
#05510:41
#00159:54545400
#00158:0024000000240000
#0015a:0000002400000000
#00253:54545400
#00252:0024000000240000
#00254:0000002400000000
#00359:64646400
#0035a:0024000000240000
#00358:0000002400000000
#00453:64646400
#00454:0024000000240000
#00452:0000002400000000
#0075a:54
#00752:0054
#00754:0000000000000014
#0115a:54
#01252:64
#01558:54
#01654:54
#0235a:0054
#02452:0064
#03359:64640000
#0335a:0024000000000000
#03358:0000002400000000
#03553:54540000
#03552:0024000000000000
#03554:0000002400000000
#04058:54
#04154:0024000000240000
#04153:64646400
#04152:0000002400000000
#04259:64646400
#0425a:0024000000240000
#04258:0000002400000000
#04958:0024000000240000
#04959:54545400
#0495a:0000002400000000
#05053:54545400
#05052:0024000000240000
#05054:0000002400000000
#05954:54
#05858:54
#0625a:64
#06352:54
#03159:00140000
#03153:00000014
#04552:14
#0465a:14
#0535a:14
#05452:14
#001390:14545424
#001380:0054000000540000
#0013a0:0000005400000000
#002330:14545424
#002320:0054000000540000
#002340:0000005400000000
#003390:14545424
#0033a0:0054000000540000
#003380:0000005400000000
#004330:14545424
#004340:0054000000540000
#004320:0000005400000000
#0073a0:14
#007380:00240000
#007320:00000000000000001400003400000000
#007340:0000000000000024
#0113a0:14
#011380:00343424
#012320:14
#012340:00343424
#015380:14
#0153a0:00343424
#016340:14
#016320:00343424
#019380:14240000
#019340:00001424
#0213a0:14
#021380:00240000
#021320:0014
#021340:00000024
#0223a0:14
#022380:00240000
#022320:0014
#022340:00000024
#0233a0:0014
#023380:00000024
#024320:0014
#024340:00000024
#029380:14
#0293a0:00240000
#029340:0014
#029320:00000024
#030380:14
#0303a0:00240000
#030340:0014
#030320:00000024
#033390:14342400
#0333a0:0054000000000000
#033380:0000005400000000
#035330:14342400
#035320:0054000000000000
#035340:0000005400000000
#040380:14
#0403a0:0024
#041330:14545424
#041340:0054000000540000
#041320:0000005400000000
#042390:14545424
#0423a0:0054000000540000
#042380:0000005400000000
#047320:14000024
#047340:00343400
#047381:14000024
#0473a1:00343400
#0483a1:14000024
#048381:00343400
#048340:14000024
#048320:00343400
#049390:14545424
#049380:0054000000540000
#0493a0:0000005400000000
#050330:14545424
#050320:0054000000540000
#050340:0000005400000000
#0553a0:14000024
#055380:00343400
#055341:14000024
#055321:00343400
#056321:14000024
#056341:00343400
#056380:14000024
#0563a0:00343400
#058380:14
#0583a0:00343424
#059340:14
#059320:00343424
#0623a0:14
#062380:00343424
#063320:14
#063340:00343424
